Movies - Other

Peter Greenaway - (1980) The Falls mkv

  • Download 5x Faster
  • Download torrent
  • Direct Download
  • Rate this torrent +  |  -
Peter Greenaway - (1980) The Falls mkv

Download FREE And Anonymously


Torrent info

Name:Peter Greenaway - (1980) The Falls mkv

Total Size: 3.01 GB

Magnet: Magnet Link

Seeds: 0

Leechers: 0

Stream: Watch Full Movie @ Movie4u

Last Updated: 2013-11-07 20:34:25 (Update Now)

Torrent added: 2013-11-07 20:34:25



VPN For Torrents

Torrent Files List


 

Announce URL: http://tracker.thepiratebay.org/announce

Torrent description

The planet has been affected by a mysterious occurrence known as the Violent Unknown Event, or V.U.E. It has caused immortality and disability. Victims have learned new and peculiar languages. Some firmly believe in the responsibility of birds. In this three-hour film, ninety-two biographies are presented of victims whose surnames begin with the letters F A L L. Presented in the mock documentary style of Water Wrackets and Dear Phone, this is the culmination of the first period of Greenaways work. It refers to shorts such as A Walk Through H and Vertical Features Remake, and forwards to the likes of Drowning by Numbers (there is reference to the three generations of Cissie Colpitts).

General
Unique ID : 202336748121270380131791728287526106662 (0x9838A3E484CC1AC7AF1B1FF05C4B3626)
Complete name : Peter Greenaway - (1980) The Falls.mkv
Format : Matroska
Format version : Version 2
File size : 3.01 GiB
Duration : 3h 6mn
Overall bit rate : 2 305 Kbps
Encoded date : UTC 2013-06-05 18:00:04
Writing application : mkvmerge v6.2.0 (Promised Land) built on Apr 28 2013 12:22:01
Writing library : libebml v1.3.0 + libmatroska v1.4.0

Video
ID : 1
Format : AVC
Format/Info : Advanced Video Codec
Format profile : [email protected]
Format settings, CABAC : Yes
Format settings, ReFrames : 7 frames
Codec ID : V_MPEG4/ISO/AVC
Duration : 3h 6mn
Bit rate : 2 111 Kbps
Width : 718 pixels
Height : 576 pixels
Display aspect ratio : 4:3
Original display aspect ratio : 4:3
Frame rate mode : Constant
Frame rate : 25.000 fps
Color space : YUV
Chroma subsampling : 4:2:0
Bit depth : 8 bits
Scan type : Progressive
Bits/(Pixel*Frame) : 0.204
Stream size : 2.70 GiB (90%)
Writing library : x264 core 133 r2334 a3ac64b
Encoding settings : cabac=1 // deblock=1:-3:-3 / analyse=0x3:0x133 / me=umh / subme=9 / psy=1 / psy_rd=1.00:0.00 // me_range=24 / chroma_me=1 / trellis=2 / 8x8dct=1 / cqm=0 / deadzone=21,11 / fast_pskip=0 / chroma_qp_offset=-2 / threads=3 / lookahead_threads=1 / sliced_threads=0 / nr=0 / decimate=0 / interlaced=0 / bluray_compat=0 / constrained_intra=0 / bframes=5 / b_pyramid=2 / b_adapt=2 / b_bias=0 / direct=3 / weightb=1 / open_gop=0 / weightp=2 / keyint=250 / keyint_min=25 / scenecut=40 / intra_refresh=0 / rc_lookahead=100 / rc=2pass / mbtree=1 / bitrate=2111 / ratetol=1.0 / qcomp=0.60 / qpmin=0 / qpmax=69 / qpstep=4 / cplxblur=20.0 / qblur=0.5 / vbv_maxrate=17500 / vbv_bufsize=17500 / nal_hrd=none / ip_ratio=1.40 / aq=1:1.00
Language : English
Default : Yes
Forced : No

Audio
ID : 2
Format : AC-3
Format/Info : Audio Coding 3
Mode extension : CM (complete main)
Format settings, Endianness : Big
Codec ID : A_AC3
Duration : 3h 6mn
Bit rate mode : Constant
Bit rate : 192 Kbps
Channel(s) : 2 channels
Channel positions : Front: L R
Sampling rate : 48.0 KHz
Bit depth : 16 bits
Compression mode : Lossy
Stream size : 257 MiB (8%)
Default : Yes
Forced : No

related torrents

Torrent name

health leech seeds Size
 


comments (0)

Main Menu

 

script data-cfasync="false" src="//d2ghscazvn398x.cloudfront.net/?cshgd=690275">