TV - Other

Comedy Nights with Kapil - Hrithik Roshan - 3rd November HQ 360p GreatPalash} MP4

  • Download 5x Faster
  • Download torrent
  • Direct Download
  • Rate this torrent +  |  -

Torrent info

Name:Comedy Nights with Kapil - Hrithik Roshan - 3rd November HQ 360p GreatPalash} MP4.torrent

Magnet: Magnet Link

Seeds: 0

Leechers: 0

Available: Watch Online @ Movie4u

Total Size: 317.07 MB

Downloaded: 1309

Torrent added: 2013-11-04 15:36:13

Last Updated: 0000-00-00 00:00:00 (Update Now)

Share:Bookmark and Share



Torrent Files List


 

Announce URL:

Torrent description

Comedy Nights with Kapil - Hrithik Roshan - 3rd November HQ 360p GreatPalash} MP4 preview 0

Comedy Nights With Kapil

Season 1 Ep. 33
Released: 03/11/13
Running time: 1:05:03

On the occassion of Diwali, Kapil and his family members celebrate the festival with a bang. Krrish aka Hritik Roshan graces the show with his presence. Kapils family members have a fun filled time with Hritik and dance with him. Hritik later, answers the question of his fans and fulfills their requests. Witness all the fun by seeing the entire epsiode.

Renowned, actor-comedian Kapil Sharma makes his debut as a TV show producer with his new show Comedy Nights With Kapil. He will be seen multiple roles of an actor, scriptwriter and producer in his production debut. Already famous for his amazing comic timing and his talent to dig humor out of any situation, he is ready present everyday life in a fresh ad unique way.

Screenshots:-

Comedy Nights with Kapil - Hrithik Roshan - 3rd November HQ 360p GreatPalash} MP4 preview 5

Comedy Nights with Kapil - Hrithik Roshan - 3rd November HQ 360p GreatPalash} MP4 preview 6

Comedy Nights with Kapil - Hrithik Roshan - 3rd November HQ 360p GreatPalash} MP4 preview 7

Comedy Nights with Kapil - Hrithik Roshan - 3rd November HQ 360p GreatPalash} MP4 preview 8

Comedy Nights with Kapil - Hrithik Roshan - 3rd November HQ 360p GreatPalash} MP4 preview 9

Media Info:-

General
Complete name : Comedy Nights with Kapil - Hrithik Roshan - 3rd November HQ 360p {GreatPalash}.MP4
Format : MPEG-4
Format profile : Base Media / Version 2
Codec ID : mp42
File size : 317 MiB
Duration : 1h 5mn
Overall bit rate mode : Variable
Overall bit rate : 682 Kbps
Encoded date : UTC 2013-11-03 17:36:11
Tagged date : UTC 2013-11-03 17:36:11

Video
ID : 1
Format : AVC
Format/Info : Advanced Video Codec
Format profile : Baseline@L3.0
Format settings, CABAC : No
Format settings, ReFrames : 1 frame
Format settings, GOP : M=1, N=60
Codec ID : avc1
Codec ID/Info : Advanced Video Coding
Duration : 1h 5mn
Bit rate : 583 Kbps
Maximum bit rate : 1 335 Kbps
Width : 640 pixels
Height : 360 pixels
Display aspect ratio : 16:9
Frame rate mode : Constant
Frame rate : 25.000 fps
Color space : YUV
Chroma subsampling : 4:2:0
Bit depth : 8 bits
Scan type : Progressive
Bits/(Pixel*Frame) : 0.101
Stream size : 271 MiB (86%)
Tagged date : UTC 2013-11-03 17:37:53

Audio
ID : 2
Format : AAC
Format/Info : Advanced Audio Codec
Format profile : LC
Codec ID : 40
Duration : 1h 5mn
Bit rate mode : Variable
Bit rate : 96.0 Kbps
Maximum bit rate : 102 Kbps
Channel(s) : 2 channels
Channel positions : Front: L R
Sampling rate : 44.1 KHz
Compression mode : Lossy
Stream size : 44.7 MiB (14%)
Encoded date : UTC 2013-11-03 17:36:48
Tagged date : UTC 2013-11-03 17:37:53

Comedy Nights with Kapil - Hrithik Roshan - 3rd November HQ 360p GreatPalash} MP4 preview 1

Comedy Nights with Kapil - Hrithik Roshan - 3rd November HQ 360p GreatPalash} MP4 preview 2

Comedy Nights with Kapil - Hrithik Roshan - 3rd November HQ 360p GreatPalash} MP4 preview 3

Comedy Nights with Kapil - Hrithik Roshan - 3rd November HQ 360p GreatPalash} MP4 preview 10

Comedy Nights with Kapil - Hrithik Roshan - 3rd November HQ 360p GreatPalash} MP4 preview 4

related torrents

Torrent name

health leech seeds Size
 

comments (0)

Main Menu