Music Videos

Ram Chahe Leela - Ram-leela HD 1080p -AshishRocks- mp4

  • Download 5x Faster
  • Download torrent
  • Direct Download
  • Rate this torrent +  |  -
Ram Chahe Leela - Ram-leela HD 1080p -AshishRocks- mp4

Download direct - no client needed


Torrent info

Name:Ram Chahe Leela - Ram-leela HD 1080p -AshishRocks- mp4.torrent

Magnet: Magnet Link

Seeds: 0

Leechers: 0

Available: Watch Online @ Movie4u

Total Size: 67.54 MB

Downloaded: 2864

Torrent added: 2013-10-25 07:35:10

Last Updated: 0000-00-00 00:00:00 (Update Now)

Share:Bookmark and Share



Torrent Files List


 

Announce URL:

Torrent description

Presenting the exclusive item number from Ram-leela, Ram Chahe Leela featuring the mesmerizing Priyanka Chopra.The song is sung by Bhoomi Trivedi.

Music: Sanjay Leela Bhansali
Lyrics: Siddharth-Garima

General
Complete name : E:New folderRam Chahe Leela - Ram-leela HD 1080p -AshishRocks-.mp4
Format : MPEG-4
Format profile : Base Media
Codec ID : isom
File size : 67.5 MiB
Duration : 2mn 14s
Overall bit rate mode : Variable
Overall bit rate : 4 203 Kbps
Encoded date : UTC 2013-10-25 10:11:13
Tagged date : UTC 2013-10-25 10:11:13
Writing application : Lavf51.12.1
Video #1
ID : 1
Format : AVC
Format/Info : Advanced Video Codec
Format profile : High@L4.0
Format settings, CABAC : Yes
Format settings, ReFrames : 2 frames
Codec ID : avc1
Codec ID/Info : Advanced Video Coding
Duration : 2mn 14s
Bit rate : 3 947 Kbps
Width : 1 920 pixels
Height : 1 080 pixels
Display aspect ratio : 16:9
Frame rate mode : Constant
Frame rate : 25.000 fps
Color space : YUV
Chroma subsampling : 4:2:0
Bit depth : 8 bits
Scan type : Progressive
Bits/(Pixel*Frame) : 0.076
Stream size : 63.4 MiB (94%)
Encoded date : UTC 2013-10-25 10:11:13
Tagged date : UTC 2013-10-25 10:11:13
Audio #2
ID : 2
Format : AAC
Format/Info : Advanced Audio Codec
Format profile : LC
Codec ID : 40
Duration : 2mn 13s
Bit rate mode : Variable
Bit rate : 254 Kbps
Channel(s) : 2 channels
Channel positions : Front: L R
Sampling rate : 44.1 KHz
Compression mode : Lossy
Stream size : 4.04 MiB (6%)
Encoded date : UTC 2013-10-25 10:11:13

related torrents

Torrent name

health leech seeds Size
 

comments (0)

Main Menu