Movies - Other

The Conjuring 2013 READNFO VODRiP XViD UNiQUE

  • Download 5x Faster
  • Download torrent
  • Direct Download
  • Rate this torrent +  |  -
The Conjuring 2013 READNFO VODRiP XViD UNiQUE

Download direct - no client needed


Torrent info

Name:The Conjuring 2013 READNFO VODRiP XViD UNiQUE.torrent

Magnet: Magnet Link

Seeds: 0

Leechers: 0

Available: Watch Free Online Movie @ Movie4u

Total Size: 1.40 GB

Downloaded: 585

Torrent added: 2013-08-03 05:34:06

Last Updated: 0000-00-00 00:00:00 (Update Now)

Share:Bookmark and Share



Torrent Files List


Conjuring.avi (Size: 1.40 GB) (Files: 3)

 Conjuring.avi

1.39 GB

 Torrent Downloaded From ExtraTorrent.com.txt

0.33 KB

 sample.avi

8.25 MB
 

Announce URL:

Torrent description


http://www.imdb.com/title/tt1457767/


Paranormal investigators Ed and Lorraine Warren work to help a family terrorized by a dark presence in their farmhouse.
In 1971, Carolyn and Roger Parren move their family into a dilapidated Rhode Island farm house and soon strange things start happening around it with escalating nightmarish terror. In desperation, Carolyn contacts the noted paranormal investigators, Ed and Lorraine Warren, to examine the house. What the Warrens discover is a whole area steeped in a satanic haunting that is now targeting the Parren family wherever they go. To stop this evil, the Warrens will have to call upon all their skills and spiritual strength to defeat this spectral menace at its source that threatens to destroy everyone involved.



Director:
James Wan

Writers:
Chad Hayes, Carey Hayes

Stars:
Vera Farmiga, Patrick Wilson, Lili Taylor

Genres:
Biography | Horror | Thriller

Country:
USA

Language:
English



Format : AVI
Format/Info : Audio Video Interleave
File size : 1.39 GiB
Duration : 1h 47mn
Overall bit rate : 1 852 Kbps
Writing application : VirtualDubMod 1.5.10.2 (build 2540/release)
Writing library : VirtualDubMod build 2540/release

Video
ID : 0
Format : MPEG-4 Visual
Format profile : Advanced Simple@L5
Format settings, BVOP : 2
Format settings, QPel : No
Format settings, GMC : No warppoints
Format settings, Matrix : Default (H.263)
Muxing mode : Packed bitstream
Codec ID : XVID
Codec ID/Hint : XviD
Duration : 1h 47mn
Bit rate : 1 714 Kbps
Width : 720 pixels
Height : 288 pixels
Display aspect ratio : 2.500
Frame rate : 25.000 fps
Color space : YUV
Chroma subsampling : 4:2:0
Bit depth : 8 bits
Scan type : Progressive
Compression mode : Lossy
Bits/(Pixel*Frame) : 0.331
Stream size : 1.29 GiB (93%)
Writing library : XviD 64

Audio
ID : 1
Format : MPEG Audio
Format version : Version 1
Format profile : Layer 3
Mode : Joint stereo
Mode extension : MS Stereo
Codec ID : 55
Codec ID/Hint : MP3
Duration : 1h 47mn
Bit rate mode : Constant
Bit rate : 128 Kbps
Channel(s) : 2 channels
Sampling rate : 44.1 KHz
Compression mode : Lossy
Stream size : 98.3 MiB (7%)
Alignment : Split accross interleaves
Interleave, duration : 40 ms (1.00 video frame)
Interleave, preload duration : 500 ms

Source Used The.Conjuring.2013.WEB-DL.X264 MP3 - SmY - Thanks


screens


The Conjuring 2013 READNFO VODRiP XViD UNiQUE preview 0
The Conjuring 2013 READNFO VODRiP XViD UNiQUE preview 1
The Conjuring 2013 READNFO VODRiP XViD UNiQUE preview 2
The Conjuring 2013 READNFO VODRiP XViD UNiQUE preview 3

related torrents

Torrent name

health leech seeds Size
 

comments (0)

Main Menu