Movies

Mahabharat Aur Barbareek (2013) 1CD DVDRip XviD

  • Download 5x Faster
  • Download torrent
  • Direct Download
  • Rate this torrent +  |  -
Mahabharat Aur Barbareek (2013) 1CD DVDRip XviD

Download direct - no client needed


Torrent info

Name:Mahabharat Aur Barbareek (2013) 1CD DVDRip XviD.torrent

Seeds: 22

Leechers: 17

Available: Watch Online @ Movie4u

Total Size: 713.47 MB

Downloaded: 740

Torrent added: 2013-03-18 04:20:46

Last Updated: 0000-00-00 00:00:00 (Update Now)

Share:Bookmark and Share



Torrent Files List


Mahabharat Aur Barbareek (2013) 1CD DVDRip XviD.avi (Size: 713.47 MB) (Files: 4)

 Mahabharat Aur Barbareek (2013) 1CD DVDRip XviD.avi

703.64 MB

 Sample

  Mahabharat Aur Barbareek [2013].Sample.avi

9.83 MB

  Torrent Tracked By Www.DesiDhamal.Com.txt

0.08 KB

 Torrent Tracked By Www.DesiDhamal.Com.txt

0.08 KB
 

Announce URL: http://www.desidhamal.com:2710/pcstfk4vqxwugd3y7ja770ffqqat2orr/announce

Torrent description

[B]Mahabharat Aur Barbareek (2013)[/B] Mahabharat Aur Barbareek (2013) 1CD DVDRip XviD preview 0 [B]INFO[/B] [CODE]Rip Information Code Code: Format : AVI Format/Info : Audio Video Interleave File size : 704 MiB Duration : 2h 17mn Overall bit rate : 718 Kbps Video Code Code: Format : MPEG-4 Visual Format profile : Advanced Simple@L5 Format settings, BVOP : 3 Format settings, QPel : No Format settings, GMC : No warppoints Format settings, Matrix : Default (MPEG) Codec ID : XVID Codec ID/Hint : XviD Duration : 2h 17mn Bit rate : 582 Kbps Width : 688 pixels Height : 288 pixels Display aspect ratio : 2.40:1 Frame rate : 25.000 fps Color space : YUV Chroma subsampling : 4:2:0 Bit depth : 8 bits Scan type : Progressive Compression mode : Lossy Bits/(Pixel*Frame) : 0.117 Stream size : 570 MiB (81%) Writing library : XviD 1.2.1 (UTC 2008-12 Audio Code Code: Format : AC-3 Format/Info : Audio Coding 3 Mode extension : CM (complete main) Format settings, Endianness : Big Codec ID : 2000 Duration : 2h 17mn Bit rate mode : Constant Bit rate : 128 Kbps Channel(s) : 2 channels Channel positions : Front: L R Sampling rate : 48.0 KHz Bit depth : 16 bits Compression mode : Lossy Stream size : 125 MiB (18%) Alignment : Aligned on interleaves Interleave, duration : 64 ms (1.60 video frames) Title : K@rtik [/CODE] [B]SCREEN SHOTS[/B] http://nimga.com/m/w9Eo9.png Mahabharat Aur Barbareek (2013) 1CD DVDRip XviD preview 2 Mahabharat Aur Barbareek (2013) 1CD DVDRip XviD preview 3 Mahabharat Aur Barbareek (2013) 1CD DVDRip XviD preview 4 Mahabharat Aur Barbareek (2013) 1CD DVDRip XviD preview 5 Mahabharat Aur Barbareek (2013) 1CD DVDRip XviD preview 6 Mahabharat Aur Barbareek (2013) 1CD DVDRip XviD preview 7 Mahabharat Aur Barbareek (2013) 1CD DVDRip XviD preview 8 Mahabharat Aur Barbareek (2013) 1CD DVDRip XviD preview 9 Mahabharat Aur Barbareek (2013) 1CD DVDRip XviD preview 10 Mahabharat Aur Barbareek (2013) 1CD DVDRip XviD preview 11 Mahabharat Aur Barbareek (2013) 1CD DVDRip XviD preview 12 Mahabharat Aur Barbareek (2013) 1CD DVDRip XviD preview 13-------------------------------------Torrent downloaded from http://thepiratebay.se

related torrents

Torrent name

health leech seeds Size
 

comments (0)

Main Menu