Warning: mysql_connect(): Headers and client library minor version mismatch. Headers:50615 Library:50534 in /home/torrentd/public_html/include/core.php on line 1206
Dracula 2012 BRRip XviD juggs Torrent Downloads - download free torrents!

Movies - Other

Dracula 2012 BRRip XviD juggs

  • Download 5x Faster
  • Download torrent
  • Direct Download
  • Rate this torrent +  |  -
Dracula 2012 BRRip XviD juggs

Download direct - no client needed


Torrent info

Name:Dracula 2012 BRRip XviD juggs.torrent

Magnet: Magnet Link

Seeds: 0

Leechers: 0

Available: Watch Free Online Movie @ Movie4u

Total Size: 712.10 MB

Downloaded: 432

Torrent added: 2013-03-17 10:34:34

Last Updated: 0000-00-00 00:00:00 (Update Now)

Share:Bookmark and Share



Torrent Files List


 

Announce URL: http://tracker.thepiratebay.org/announce

Torrent description

Source :PHD (Thanks)


Format : AVI
Format/Info : Audio Video Interleave
File size : 701 MiB
Duration : 1h 50mn
Overall bit rate : 890 Kbps
Writing library : VirtualDub build 32842/release

Video
ID : 0
Format : MPEG-4 Visual
Format profile : Advanced Simple@L5
Format settings, BVOP : 4
Format settings, QPel : No
Format settings, GMC : No warppoints
Format settings, Matrix : Default (H.263)
Muxing mode : Packed bitstream
Codec ID : XVID
Codec ID/Hint : XviD
Duration : 1h 50mn
Bit rate : 753 Kbps
Width : 640 pixels
Height : 272 pixels
Display aspect ratio : 2.35:1
Frame rate : 23.976 fps
Color space : YUV
Chroma subsampling : 4:2:0
Bit depth : 8 bits
Scan type : Progressive
Compression mode : Lossy
Bits/(Pixel*Frame) : 0.180
Stream size : 592 MiB (85%)
Writing library : XviD 64

Audio
ID : 1
Format : MPEG Audio
Format version : Version 1
Format profile : Layer 3
Codec ID : 55
Codec ID/Hint : MP3
Duration : 1h 50mn
Bit rate mode : Constant
Bit rate : 128 Kbps
Channel(s) : 2 channels
Sampling rate : 44.1 KHz
Compression mode : Lossy
Stream size : 101 MiB (14%)
Alignment : Split accross interleaves
Interleave, duration : 42 ms (1.00 video frame)
Interleave, preload duration : 500 ms
Writing library : LAME3.99r
Encoding settings : -m s -V 4 -q 3 -lowpass 17 -b 128

Plot
The tale begins with Jonathan Harker, journeying by train and carriage from England to Count Draculas crumbling, remote castle situated in the Carpathian Mountains on the border of Transylvania. The purpose of his mission is to catalogue the big library of Dracula. At first enticed by Draculas gracious manner, Harker soon discovers that he has become a prisoner in the castle. He also begins to see disquieting facets of Draculas nocturnal life. One night while searching for a way out of the castle, and against Draculas strict admonition not to venture outside his room at night, Harker falls under the spell of three wanton female vampires, the Brides of Dracula.

Dracula 2012 BRRip XviD juggs preview 0
Dracula 2012 BRRip XviD juggs preview 1
Dracula 2012 BRRip XviD juggs preview 2

related torrents

Torrent name

health leech seeds Size

DEAR DRACULA 2012 BRRip

201 881 719.99 MB 0
 

comments (0)

Main Menu