Movies

Gundello Godari (2013) Telugu Movie HQ PDVD MP4 - Exclusive

  • Download 5x Faster
  • Download torrent
  • Direct Download
  • Rate this torrent +  |  -

Torrent info

Name:Gundello Godari (2013) Telugu Movie HQ PDVD MP4 - Exclusive.torrent

Seeds: 26

Leechers: 4

Available: Watch Online @ Movie4u

Total Size: 623.07 MB

Downloaded: 4215

Torrent added: 2013-03-10 16:20:37

Last Updated: 0000-00-00 00:00:00 (Update Now)

Share:Bookmark and Share



Torrent Files List


 

tracker

leech seeds
 

Torrent description

Gundello Godari (2013) Telugu Movie HQ PDVD MP4 - Exclusive preview 0 Info: Format : MPEG-4 Format profile : Base Media / Version 2 Codec ID : mp42 File size : 623 MiB Duration : 1h 56mn Overall bit rate : 747 Kbps Encoded date : UTC 2013-03-10 15:17:41 Tagged date : UTC 2013-03-10 15:39:20 Writing application : HandBrake 0.9.8 2012071700 Video ID : 1 Format : AVC Format/Info : Advanced Video Codec Format profile : Main@L3.0 Format settings, CABAC : Yes Format settings, ReFrames : 4 frames Format settings, GOP : M=4, N=31 Codec ID : avc1 Codec ID/Info : Advanced Video Coding Duration : 1h 56mn Bit rate mode : Variable Bit rate : 583 Kbps Width : 720 pixels Height : 400 pixels Display aspect ratio : 16:9 Frame rate mode : Variable Frame rate : 25.000 fps Minimum frame rate : 3.571 fps Maximum frame rate : 25.000 fps Color space : YUV Chroma subsampling : 4:2:0 Bit depth : 8 bits Scan type : Progressive Bits/(Pixel*Frame) : 0.081 Stream size : 486 MiB (78%) Writing library : x264 core 120 Encoded date : UTC 2013-03-10 15:17:41 Tagged date : UTC 2013-03-10 15:39:20 Material_Duration : 6992320 Material_StreamSize : 509717853 Material_FrameCount : 174800 Color primaries : BT.601-6 525, BT.1358 525, BT.1700 NTSC, SMPTE 170M Transfer characteristics : BT.709-5, BT.1361 Matrix coefficients : BT.601-6 525, BT.1358 525, BT.1700 NTSC, SMPTE 170M Audio ID : 2 Format : AAC Format/Info : Advanced Audio Codec Format profile : LC Codec ID : 40 Duration : 1h 56mn Bit rate mode : Variable Bit rate : 160 Kbps Maximum bit rate : 202 Kbps Channel(s) : 2 channels Channel positions : Front: L R Sampling rate : 48.0 KHz Compression mode : Lossy Stream size : 133 MiB (21%) Encoded date : UTC 2013-03-10 15:17:41 Tagged date : UTC 2013-03-10 15:39:19 Material_Duration : 6991958 Material_StreamSize : 139824747 Screens: http://www.shotpix.com/images/25348802948147252020.png Gundello Godari (2013) Telugu Movie HQ PDVD MP4 - Exclusive preview 2 Gundello Godari (2013) Telugu Movie HQ PDVD MP4 - Exclusive preview 3 Gundello Godari (2013) Telugu Movie HQ PDVD MP4 - Exclusive preview 4 Gundello Godari (2013) Telugu Movie HQ PDVD MP4 - Exclusive preview 5 Gundello Godari (2013) Telugu Movie HQ PDVD MP4 - Exclusive preview 6 Gundello Godari (2013) Telugu Movie HQ PDVD MP4 - Exclusive preview 7 Gundello Godari (2013) Telugu Movie HQ PDVD MP4 - Exclusive preview 8-------------------------------------Torrent downloaded from http://thepiratebay.se

related torrents

Torrent name

health leech seeds Size
 

comments (0)

Main Menu