Movies

Side Effects 2013 DVDRiP XViD 1337-org} avi

  • Download 5x Faster
  • Download torrent
  • Direct Download
  • Rate this torrent +  |  -
Side Effects 2013 DVDRiP XViD 1337-org} avi

Download direct - no client needed


Torrent info

Name:Side Effects 2013 DVDRiP XViD 1337-org} avi.torrent

Seeds: 1

Leechers: 3

Available: Watch Online @ Movie4u

Total Size: 809.38 MB

Downloaded: 801

Torrent added: 2013-02-27 08:21:06

Last Updated: 2013-05-09 10:31:19 (Update Now)

Share:Bookmark and Share



Torrent Files List


Side Effects.2013.DVDRiP.XViD.{1337-org}.avi (Size: 809.38 MB) (Files: 1)

 Side Effects.2013.DVDRiP.XViD.{1337-org}.avi

809.38 MB
 

Announce URL: http://www.h33t.com:3310/announce

Torrent description

Please share....Dont hit and run...Seed it back at least once. Of course, if you want to seed it back more than once, that would be ok too :) ------------------------------------------------------------------- QUALITY: PERFECT 10/10 All details are here: Format | AVI Language | ENGLISH Source | DVD PAL Subs | NONE QUALITY: PERFECT 10/10 - Video ID : 0 Format : MPEG-4 Visual Format profile : Advanced Simple@L5 Format settings, BVOP : Yes Format settings, QPel : No Format settings, GMC : No warppoints Format settings, Matrix : Default (H.263) Muxing mode : Packed bitstream Codec ID : XVID Codec ID/Hint : XviD Bit rate : 1 345 Kbps Width : 720 pixels Height : 314 pixels Display aspect ratio : 2.25:1 Frame rate : 29.970 fps Color space : YUV Chroma subsampling : 4:2:0 Bit depth : 8 bits Scan type : Progressive Compression mode : Lossy Bits/(Pixel*Frame) : 0.198 Stream size : 1.19 GiB (87%) Writing library : XviD 1.1.0 (UTC 2005-11-22) - Audio ID : 1 Format : AC-3 Format/Info : Audio Coding 3 Mode extension : CM (complete main) Codec ID : 2000 Bit rate mode : Constant Bit rate : 192 Kbps Channel(s) : 2 channels Channel positions : Front: L R Sampling rate : 48.0 KHz Bit depth : 16 bits Compression mode : Lossy Stream size : 175 MiB (12%) Alignment : Aligned on interleaves Interleave, duration : 33 ms (1.00 video frame) Interleave, preload duration : 512 ms-------------------------------------Torrent downloaded from http://thepiratebay.se

related torrents

Torrent name

health leech seeds Size

Side Effects (2013)

3520 14520 772.94 MB 0

Side Effects (2013)

3012 11281 1.12 MB 0
 

comments (0)

Main Menu