Movies

Vishwaroopam 2013 DVDScr New Hindi

  • Download 5x Faster
  • Download torrent
  • Direct Download
  • Rate this torrent +  |  -
Vishwaroopam 2013 DVDScr New Hindi

Download direct - no client needed


Torrent info

Name:Vishwaroopam 2013 DVDScr New Hindi.torrent

Seeds: 9

Leechers: 0

Available: Watch Online @ Movie4u

Total Size: 684.91 MB

Downloaded: 9237

Torrent added: 2013-02-06 12:20:20

Last Updated: 0000-00-00 00:00:00 (Update Now)

Share:Bookmark and Share



Torrent Files List


 



Announce URL: http://exodus.desync.com/announce

Torrent description

Release info: General Format : Matroska Format version : Version 4 / Version 2 File size : 685 MiB Duration : 2h 28mn Overall bit rate : 646 Kbps Movie name : Vishwaroopam 2013 DVDScr New Hindi Video ID : 1 Format : MPEG-4 Visual Format profile : Advanced Simple@L5 Format settings, BVOP : Yes Format settings, QPel : No Format settings, GMC : No warppoints Format settings, Matrix : Default (H.263) Codec ID : V_MS/VFW/FOURCC / XVID Codec ID/Hint : XviD Duration : 2h 28mn Bit rate : 553 Kbps Width : 608 pixels Height : 240 pixels Display aspect ratio : 2.533 Frame rate mode : Constant Frame rate : 25.000 fps Color space : YUV Chroma subsampling : 4:2:0 Bit depth : 8 bits Scan type : Progressive Compression mode : Lossy Bits/(Pixel*Frame) : 0.152 Stream size : 586 MiB (86%) Title : Vishwaroopam 2013 DVDScr New Hindi Language : Hindi Default : Yes Forced : No Audio ID : 2 Format : MPEG Audio Format version : Version 1 Format profile : Layer 3 Mode : Joint stereo Mode extension : MS Stereo Codec ID : A_MPEG/L3 Codec ID/Hint : MP3 Duration : 2h 28mn Bit rate mode : Constant Bit rate : 80.0 Kbps Channel(s) : 2 channels Sampling rate : 32.0 KHz Compression mode : Lossy Stream size : 85.1 MiB (12%) Title : Vishwaroopam 2013 DVDScr New Hindi Language : Hindi Default : Yes Forced : No Source: credit to original movie ripper (Thanks) IMDB Info: Ms.Nirupama was from a middle class family in Chennai, she comes to U.S to pursue her higher studies. There she marries the dance master Vishwanath and they both lead a rather happy and ... Director: Kamal Hassan Writers: Kamal Hassan, Atul Tiwari Stars: Kamal Hassan, Pooja Kumar, Andrea Jeremiah Genres: Action | Crime | Thriller Vishwaroopam 2013 DVDScr New Hindi preview 0 Vishwaroopam 2013 DVDScr New Hindi preview 1 Vishwaroopam 2013 DVDScr New Hindi preview 2 Vishwaroopam 2013 DVDScr New Hindi preview 3-------------------------------------Torrent downloaded from http://thepiratebay.se

related torrents

Torrent name

health leech seeds Size
 

comments (0)

Main Menu