Movies - Other

Simhasanam (2012) Malayalam Movie DVDRip x264 - Exclusive

  • Download 5x Faster
  • Download torrent
  • Direct Download
  • Rate this torrent +  |  -

Torrent info

Name:Simhasanam (2012) Malayalam Movie DVDRip x264 - Exclusive.torrent

Magnet: Magnet Link

Seeds: 72

Leechers: 21

Available: Watch Online @ Movie4u

Total Size: 825.42 MB

Downloaded: 3889

Torrent added: 2012-12-27 11:34:10

Last Updated: 0000-00-00 00:00:00 (Update Now)

Share:Bookmark and Share



Torrent Files List


 

tracker

leech seeds
 

Torrent description

Poster:
Simhasanam (2012) Malayalam Movie DVDRip x264 - Exclusive preview 0

Info:

Format : Matroska
Format version : Version 2
File size : 825 MiB
Duration : 2h 36mn
Overall bit rate : 739 Kbps
Movie name : Avidemux
Writing application : Lavf53.24.0
Writing library : Lavf53.24.0
AUTHOR : Avidemux

Video
ID : 1
Format : AVC
Format/Info : Advanced Video Codec
Format profile : High@L2.1
Format settings, CABAC : Yes
Format settings, ReFrames : 3 frames
Codec ID : V_MPEG4/ISO/AVC
Duration : 2h 36mn
Bit rate : 600 Kbps
Width : 688 pixels
Height : 288 pixels
Display aspect ratio : 2.40:1
Frame rate mode : Constant
Frame rate : 23.976 fps
Color space : YUV
Chroma subsampling : 4:2:0
Bit depth : 8 bits
Scan type : Progressive
Bits/(Pixel*Frame) : 0.126
Stream size : 666 MiB (81%)
Writing library : x264 core 120 r2151 a3f4407
Default : Yes
Forced : No

Audio
ID : 2
Format : AC-3
Format/Info : Audio Coding 3
Mode extension : CM (complete main)
Format settings, Endianness : Big
Codec ID : A_AC3
Duration : 2h 36mn
Bit rate mode : Constant
Bit rate : 128 Kbps
Channel(s) : 6 channels
Channel positions : Front: L C R, Side: L R, LFE
Sampling rate : 48.0 KHz
Bit depth : 16 bits
Compression mode : Lossy
Delay relative to video : -42ms
Stream size : 143 MiB (17%)
Default : Yes
Forced : No



Screens:
Simhasanam (2012) Malayalam Movie DVDRip x264 - Exclusive preview 1
Simhasanam (2012) Malayalam Movie DVDRip x264 - Exclusive preview 2
Simhasanam (2012) Malayalam Movie DVDRip x264 - Exclusive preview 3
Simhasanam (2012) Malayalam Movie DVDRip x264 - Exclusive preview 4
Simhasanam (2012) Malayalam Movie DVDRip x264 - Exclusive preview 5

related torrents

Torrent name

health leech seeds Size
 

comments (0)

Main Menu