Movies - Other

To Rome with Love 2012 DVDRip XviD-ViP3R

  • Download 5x Faster
  • Download torrent
  • Direct Download
  • Rate this torrent +  |  -
To Rome with Love 2012 DVDRip XviD-ViP3R

Download direct - no client needed


Torrent info

Name:To Rome with Love 2012 DVDRip XviD-ViP3R.torrent

Magnet: Magnet Link

Seeds: 0

Leechers: 0

Available: Watch Free Online Movie @ Movie4u

Total Size: 681.36 MB

Downloaded: 0

Torrent added: 2012-07-12 12:35:23

Last Updated: 2012-07-12 11:35:23 (Update Now)

Share:Bookmark and Share



Torrent Files List


To Rome with Love.DVDRip.XviD-ViP3R.wmv (Size: 681.36 MB) (Files: 4)

 To Rome with Love.DVDRip.XviD-ViP3R.wmv

681.29 MB

 Subtitle.srt

64.77 KB

 info.nfo

6.26 KB

 Readme.txt

0.29 KB
 

Announce URL:

Torrent description


To Rome with Love.2012.DVDRip.XviD-ViP3R

Format : AVI
Format/Info : Audio Video Interleave
File size : 698 MiB
Duration : 1h 43mn
Overall bit rate : 944 Kbps
Writing application : Nandub v1.0rc2
Writing library : Nandub build 1852/release
Video
ID : 0
Format : MPEG-4 Visual
Format profile : Advanced Simple@L5
Format settings, BVOP : Yes
Format settings, QPel : No
Format settings, GMC : No warppoints
Format settings, Matrix : Default (H.263)
Codec ID : XVID
Codec ID/Hint : XviD
Duration : 1h 43mn
Bit rate : 815 Kbps
Width : 592 pixels
Height : 320 pixels
Display aspect ratio : 2.691
Frame rate : 25.000 fps
Color space : YUV
Chroma subsampling : 4:2:0
Bit depth : 8 bits
Scan type : Progressive
Bits/(Pixel*Frame) : 0.172
Stream size : 603 MiB (86%)
Writing library : XviD 1.0.3 (UTC 2004-12-20)
Audio
ID : 1
Format : MPEG Audio
Format version : Version 1
Format profile : Layer 3
Mode : Joint stereo
Codec ID : 55
Codec ID/Hint : MP3
Duration : 1h 43mn
Bit rate mode : Variable
Bit rate : 116 Kbps
Nominal bit rate : 128 Kbps
Channel(s) : 2 channels
Sampling rate : 48.0 KHz
Stream size : 86.0 MiB (12%)
Alignment : Aligned on interleaves
Interleave, duration : 24 ms (0.60 vide

related torrents

Torrent name

health leech seeds Size
 

comments (0)

Main Menu