Movies - Other

Foster 2011 DVDRip XviD-OCW

  • Download 5x Faster
  • Download torrent
  • Direct Download
  • Rate this torrent +  |  -
Foster 2011 DVDRip XviD-OCW

Download direct - no client needed


Torrent info

Name:Foster 2011 DVDRip XviD-OCW.torrent

Seeds: 0

Leechers: 0

Available: Watch Free Online Movie @ Movie4u

Total Size: 707.04 MB

Downloaded: 81

Torrent added: 2011-12-19 11:35:10

Last Updated: 0000-00-00 00:00:00 (Update Now)

Share:Bookmark and Share



Torrent Files List


 

Announce URL: http://tracker.thepiratebay.org/announce

Torrent description





Foster 2011 DVDRip XviD-OCW

http://www.imdb.com/title/tt1629443/

General
Complete name : Foster.2011.DVDRip.XviD-OCW.avi
Format : AVI
Format/Info : Audio Video Interleave
File size : 700 MiB
Duration : 1h 30mn
Overall bit rate : 1 085 Kbps
Writing application : VirtualDubMod 1.5.4.1 (build 2178/release)
Writing library : VirtualDubMod build 2178/release

Video
ID : 0
Format : MPEG-4 Visual
Format profile : Advanced Simple@L5
Format settings, BVOP : 1
Format settings, QPel : No
Format settings, GMC : No warppoints
Format settings, Matrix : Custom
Codec ID : XVID
Codec ID/Hint : XviD
Duration : 1h 30mn
Bit rate : 957 Kbps
Width : 720 pixels
Height : 416 pixels
Display aspect ratio : 16:9
Frame rate : 23.976 fps
Color space : YUV
Chroma subsampling : 4:2:0
Bit depth : 8 bits
Scan type : Progressive
Compression mode : Lossy
Bits/(Pixel*Frame) : 0.133
Stream size : 618 MiB (88%)
Writing library : XviD 62

Audio
ID : 1
Format : MPEG Audio
Format version : Version 1
Format profile : Layer 3
Mode : Joint stereo
Mode extension : MS Stereo
Codec ID : 55
Codec ID/Hint : MP3
Duration : 1h 30mn
Bit rate mode : Variable
Bit rate : 115 Kbps
Nominal bit rate : 128 Kbps
Channel(s) : 2 channels
Sampling rate : 48.0 KHz
Compression mode : Lossy
Stream size : 74.2 MiB (11%)
Alignment : Aligned on interleaves
Interleave, duration : 24 ms (0.58 video frame)
Interleave, preload duration : 544 ms
Writing library : LAME3.98r
Encoding settings : -m j -V 4 -q 2 -lowpass 17 --abr 128
Language : English

Plot

Looking to adopt a child and unable to conceive a child of their own,
the Morrisons lives are turned upside down when a 7 year old boy
unexpectedly shows up on their doorstep.

Cast

Maurice Cole ... Eli
Toni Collette ... Zooey
Ioan Gruffudd ... Alec
Hayley Mills ... Mrs Lange
Richard E. Grant ... Mr Potts
Anne Reid ... Diane
Daisy Beaumont ... Sarah
Bobby Smalldridge ... Samuel


Foster 2011 DVDRip XviD-OCW preview 0
Foster 2011 DVDRip XviD-OCW preview 1
Foster 2011 DVDRip XviD-OCW preview 2

related torrents

Torrent name

health leech seeds Size

Underground 2011 DVDRiP XViD-OCW

550 2726 699.51 MB 0
 

comments (0)

Main Menu