Movies - Other

Molokh (Moloch) 1999 DVDRip Xvid AC3 HardSubbed 480p

  • Download 5x Faster
  • Download torrent
  • Direct Download
  • Rate this torrent +  |  -
Molokh (Moloch) 1999 DVDRip Xvid AC3 HardSubbed 480p

Anonymous and Free Direct Download


Torrent info

Name:Molokh (Moloch) 1999 DVDRip Xvid AC3 HardSubbed 480p

Total Size: 2.00 GB

Magnet: Magnet Link

Seeds: 2

Leechers: 9

Stream: Watch Online @ Movie4u

Last Updated: 2011-04-19 22:53:38 (Update Now)

Torrent added: 2011-04-19 00:35:06



VPN For Torrents

Torrent Files List


Molokh 1999 DVDRip Xvid AC3 480p.nfo (Size: 2.00 GB) (Files: 6)

 Molokh 1999 DVDRip Xvid AC3 480p.nfo

4.99 KB

 Molokh 1999 DVDRip Xvid AC3 480p.sfv

0.50 KB

 Molokh 1999 DVDRip Xvid AC3 HardSubbed 480p-Sample.avi

30.70 MB

 Molokh 1999 DVDRip Xvid AC3 HardSubbed 480p.avi

1.97 GB

 Speed.cd read me .txt

0.05 KB

 www.Speed.Cd.txt

0.05 KB
 

Announce URL: http://tracker.ccc.de/announce

Torrent description

-
http:// www. Speed. Cd
http:// www. Speed. Cd the fast and The Hottest Private Tracker on the net

Please Seed back to make the speed Faster!!!

and dont forget to visit ...... www. Speed. Cd..........
-Complete name : Molokh 1999 DVDRip Xvid AC3 480p.avi
Format : AVI
Format/Info : Audio Video Interleave
File size : 1.97 GiB
Duration : 1h 43mn
Overall bit rate : 2 733 Kbps
Writing application : VirtualDubMod 1.5.10.2 (build 2540/release)
Writing library : VirtualDubMod build 2540/release

Video
ID : 0
Format : MPEG-4 Visual
Format profile : Advanced [email protected]
Format settings, BVOP : 1
Format settings, QPel : No
Format settings, GMC : No warppoints
Format settings, Matrix : Default (H.263)
Codec ID : XVID
Codec ID/Hint : XviD
Duration : 1h 43mn
Bit rate : 2 500 Kbps
Width : 640 pixels
Height : 384 pixels
Display aspect ratio : 1.667
Frame rate : 25.000 fps
Color space : YUV
Chroma subsampling : 4:2:0
Bit depth : 8 bits
Scan type : Progressive
Compression mode : Lossy
Bits/(Pixel*Frame) : 0.407
Stream size : 1.80 GiB (91%)
Writing library : XviD 1.2.1 (UTC 2008-12-04)

Audio
ID : 1
Format : AC-3
Format/Info : Audio Coding 3
Mode extension : CM (complete main)
Codec ID : 2000
Duration : 1h 43mn
Bit rate mode : Constant
Bit rate : 224 Kbps
Channel(s) : 2 channels
Channel positions : Front: L R
Sampling rate : 48.0 KHz
Bit depth : 16 bits
Compression mode : Lossy
Stream size : 165 MiB (8%)
Alignment : Aligned on interleaves
Interleave, duration : 40 ms (1.00 video frame)
Interleave, preload duration : 512 ms

http://www.imdb.com/title/tt0199777/

In 1942, in Bavaria, Eva Braun is alone, when Adolf Hitler arrives with Dr. Josef Goebbels and his wife Magda Goebbels and Martin Bormann to spend a couple of days without talking politics.

related torrents

Torrent name

health leech seeds Size
 


comments (0)

Main Menu