Movies - Other

VTS_01_0

  • Download 5x Faster
  • Download torrent
  • Direct Download
  • Rate this torrent +  |  -
VTS_01_0

Download direct - no client needed


Torrent info

Name:VTS_01_0.torrent

Seeds: 0

Leechers: 0

Available: Watch Online @ Movie4u

Total Size: 661.82 MB

Downloaded: 72

Torrent added: 2011-04-01 09:35:16

Last Updated: 0000-00-00 00:00:00 (Update Now)

Alternatives:VTS_01_0 Torrents

Share:Bookmark and Share



Torrent Files List


VIDEO_TS (Size: 661.82 MB) (Files: 7)

 VIDEO_TS

  VTS_01_1.VOB

661.53 MB

  VTS_01_0.BUP

78.00 KB

  VTS_01_0.IFO

78.00 KB

  VTS_01_0.VOB

58.00 KB

  VIDEO_TS.VOB

58.00 KB

  VIDEO_TS.IFO

12.00 KB

  VIDEO_TS.BUP

12.00 KB
 

Announce URL:

Torrent description

Format : MPEG-PS File size : 662 MiB Duration : 1h 55mn Overall bit rate : 799 Kbps Video ID : 224 (0xE0) Format : MPEG Video Format version : Version 2 Format profile : Main@Main Format settings, BVOP : Yes Format settings, Matrix : Default Format settings, GOP : M=3, N=13 Duration : 1h 55mn Bit rate mode : Variable Bit rate : 655 Kbps Nominal bit rate : 9 672 Kbps Width : 352 pixels Height : 288 pixels Display aspect ratio : 4:3 Frame rate : 25.000 fps Standard : PAL Color space : YUV Chroma subsampling : 4:2:0 Bit depth : 8 bits Scan type : Progressive Compression mode : Lossy Bits/(Pixel*Frame) : 0.259 Stream size : 542 MiB (82%) Audio ID : 192 (0xC0) Format : MPEG Audio Format version : Version 1 Format profile : Layer 2 Duration : 1h 55mn Bit rate mode : Constant Bit rate : 128 Kbps Channel(s) : 2 channels Sampling rate : 48.0 KHz Compression mode : Lossy Stream size : 106 MiB (16%)

related torrents

Torrent name

health leech seeds Size

VTS 01 4 VOB

4 0 283.54 MB 0

VTS 01 2 VOB

0 0 804.91 MB 0

VTS 01 1 VOB

0 0 1.00 GB 0

VTS 01 1 VOB

0 0 1.00 GB 0

VTS 01 2 VOB

1 0 1.00 GB 0
 

comments (0)

Main Menu