Movies - Other

The Sicilian Girl

  • Download 5x Faster
  • Download torrent
  • Direct Download
  • Rate this torrent +  |  -
The Sicilian Girl

Download direct - no client needed


Torrent info

Name:The Sicilian Girl.torrent

Seeds: 15

Leechers: 15

Available: Watch Free Online Movie @ Movie4u

Total Size: 1.62 GB

Downloaded: 11

Torrent added: 2011-02-19 05:35:01

Last Updated: 0000-00-00 00:00:00 (Update Now)

Share:Bookmark and Share



Torrent Files List


 

Announce URL: http://tracker.istole.it/announce

Torrent description

With: Veronica D\'Agostino, Gérard Jugnot and Francesco Casisa

Inspired to a true story, on November 5th 1991, Rita Atria a young 17-year-old Sicilian girl, goes to see an anti-Mafia judge Paolo Borsellino to denounce the Mafia system that was responsible for the murder of her father and her brother. It is the first time that such a young woman from a Mafia family rebels and betrays the Mafia. From that moment on, Rita\'s days are numbered. She only has nine months to live...

General:

Complete name : The Sicilian Girl\\La Siciliana Ribelle.avi
Format : AVI
Format/Info : Audio Video Interleave
File size : 1.62 GiB
Duration : 1h 47mn
Overall bit rate : 2 150 Kbps

Video:

Format : MPEG-4 Visual
Format profile : Simple@L3
Format settings, BVOP : No
Format settings, QPel : No
Format settings, GMC : No warppoints
Format settings, Matrix : Default (H.263)
Codec ID : XVID
Codec ID/Hint : XviD
Duration : 1h 47mn
Bit rate : 1 691 Kbps
Width : 652 pixels
Height : 352 pixels
Display aspect ratio : 1.852
Frame rate : 25.000 fps
Color space : YUV
Chroma subsampling : 4:2:0
Bit depth : 8 bits
Scan type : Progressive
Bits/(Pixel*Frame) : 0.295
Stream size : 1.27 GiB (79%)
Writing library : XviD 1.1.2 (UTC 2006-11-01)

Audio:

Format : AC-3
Format/Info : Audio Coding 3
Mode extension : CM (complete main)
Codec ID : 2000
Duration : 1h 47mn
Bit rate mode : Constant
Bit rate : 448 Kbps
Channel(s) : 6 channels
Channel positions : Front: L C R, Side: L R, LFE
Sampling rate : 48.0 KHz
Bit depth : 16 bits
Stream size : 346 MiB (21%)
Alignment : Aligned on interleaves
Interleave, duration : 32 ms (0.80 video frame)


related torrents

Torrent name

health leech seeds Size
 

comments (0)

Main Menu