Movies - Other

lawrence of arabia

  • Download 5x Faster
  • Download torrent
  • Direct Download
  • Rate this torrent +  |  -
lawrence of arabia

Download direct - no client needed


Torrent info

Name:lawrence of arabia.torrent

Seeds: 30

Leechers: 10

Available: Watch Online @ Movie4u

Total Size: 1.37 GB

Downloaded: 492

Torrent added: 2011-01-04 22:35:35

Last Updated: 0000-00-00 00:00:00 (Update Now)

Share:Bookmark and Share



Torrent Files List


lawrence of arabia_cd2.avi (Size: 1.37 GB) (Files: 17)

 lawrence of arabia_cd2.avi

701.15 MB

 lawrence of arabia_cd1.avi

699.86 MB

 backdrop1.jpg

542.10 KB

 Lawrence of Arabia.jpg

452.67 KB

 movie.tbn

452.67 KB

 folder.jpg

452.67 KB

 backdrop2.jpg

432.18 KB

 backdrop4.jpg

380.13 KB

 backdrop.jpg

309.50 KB

 backdrop3.jpg

309.50 KB

 fanart.jpg

309.50 KB

 Lawrence of Arabia_2.jpg

21.80 KB

 mymovies.xml

10.14 KB

 movie.nfo

7.77 KB

 Lawrence of Arabia.txt

6.49 KB

 mcm_id__tt0056172-947.dvdid.xml

0.12 KB

 Torrent downloaded from Demonoid.me.txt

0.04 KB
 

Announce URL: http://inferno.demonoid.me:3413/announce

Torrent description

Lawrence of Arabia (1962)

An inordinately complex man who has been labeled everything from hero,
to charlatan, to sadist, Thomas Edward Lawrence blazed his way to glory
in the Arabian desert, then sought anonymity as a common soldier under
an assumed name. The story opens with the death of Lawrence in a motorcycle
accident in London at the age of 47, then flashbacks to recount his
adventures: as a young intelligence officer in Cairo in 1916, he is given
leave to investigate the progress of the Arab revolt against the Turks in World War I.
In the desert, he organizes a guerrilla army and--for two years--leads the Arabs in
harassing the Turks with desert raids, train-wrecking and camel attacks. Eventually,
he leads his army northward and helps a British General destroy the power of the
Ottoman Empire.
Written by alfiehitchie

http://www.imdb.com/title/tt0056172/

lawrence of arabia preview 0

lawrence of arabia preview 1

General
Complete name : lawrence of arabia.avi
Format : AVI
Format/Info : Audio Video Interleave
File size : 700 MiB
Duration : 1h 51mn
Overall bit rate : 877 Kbps
Writing application : VirtualDubMod 1.5.4.1 (build 2178/release)
Writing library : VirtualDubMod build 2178/release

Video
ID : 0
Format : MPEG-4 Visual
Format profile : Advanced Simple@L5
Format settings, BVOP : Yes
Format settings, QPel : No
Format settings, GMC : No warppoints
Format settings, Matrix : Custom
Codec ID : XVID
Codec ID/Hint : XviD
Duration : 1h 51mn
Bit rate : 421 Kbps
Width : 560 pixels
Height : 320 pixels
Display aspect ratio : 16:9
Frame rate : 29.970 fps
Color space : YUV
Chroma subsampling : 4:2:0
Bit depth : 8 bits
Scan type : Progressive
Compression mode : Lossy
Bits/(Pixel*Frame) : 0.078
Stream size : 336 MiB (48%)
Writing library : XviD 1.2.1 (UTC 2008-12-04)

Audio
ID : 1
Format : AC-3
Format/Info : Audio Coding 3
Mode extension : CM (complete main)
Codec ID : 2000
Duration : 1h 51mn
Bit rate mode : Constant
Bit rate : 448 Kbps
Channel(s) : 6 channels
Channel positions : Front: L C R, Side: L R, LFE
Sampling rate : 48.0 KHz
Bit depth : 16 bits
Compression mode : Lossy
Stream size : 358 MiB (51%)
Alignment : Aligned on interleaves
Interleave, duration : 96 ms (2.88 video frames)
Interleave, preload duration : 96 ms

related torrents

Torrent name

health leech seeds Size
 

comments (0)

Main Menu