Other

Playboy - Sara Jean Underwood - Nude Yoga

  • Download 5x Faster
  • Download torrent
  • Direct Download
  • Rate this torrent +  |  -
Playboy - Sara Jean Underwood - Nude Yoga

Download direct - no client needed


Torrent info

Name:Playboy - Sara Jean Underwood - Nude Yoga.torrent

Seeds: 0

Leechers: 0

Available: Watch Online @ Movie4u

Total Size: 305.05 MB

Downloaded: 2808

Torrent added: 2010-12-17 17:17:01

Last Updated: 2014-03-30 09:50:36 (Update Now)

Share:Bookmark and Share



Torrent Files List


yoga_04_side_angle_n_720.mov (Size: 305.05 MB) (Files: 13)

 yoga_04_side_angle_n_720.mov

26.94 MB

 yoga_06_tree_n_720.mov

25.90 MB

 yoga_13_shoulder_stand_n_720.mov

25.90 MB

 yoga_01_standing_forward_bend_n_720.mov

25.88 MB

 yoga_12_bridge_n_720.mov

25.76 MB

 yoga_03_warrior_one_n_720.mov

25.74 MB

 yoga_10_camel_n_720.mov

24.84 MB

 yoga_02_plank_n_720.mov

24.13 MB

 yoga_05_triangle_n_720.mov

23.51 MB

 yoga_07_eagle_n_720.mov

21.21 MB

 yoga_08_dancers_n_720.mov

19.71 MB

 yoga_11_plank_n_720.mov

19.01 MB

 yoga_09_crow_n_720.mov

16.53 MB
 

Announce URL:

Torrent description


[URL=http://forum.tntvillage.scambioetico.org/tntforum/index.php?showforum=513] PLAYBOY - SARA JEAN UNDERWOOD - NUDE YOGA .: Scheda Tecnica del Filmato :. General Complete name : Playboy - Sara Jean Underwood - Nude Yogayoga_01_standing_forward_bend_n_720.mov Format : MPEG-4 Format profile : QuickTime Format settings : Compressed header Codec ID : qt File size : 25.9 MiB Duration : 57s 864ms Overall bit rate : 3 752 Kbps Encoded date : UTC 2009-05-13 02:30:59 Tagged date : UTC 2009-05-13 02:31:00 Writing library : Apple QuickTime Video ID : 1 Format : AVC Format/Info : Advanced Video Codec Format profile : Main@L3.1 Format settings, CABAC : No Format settings, ReFrames : 2 frames Codec ID : avc1 Codec ID/Info : Advanced Video Coding Duration : 57s 800ms Bit rate mode : Variable Bit rate : 3 637 Kbps Width : 1 280 pixels Height : 720 pixels Display aspect ratio : 16:9 Frame rate mode : Constant Frame rate : 30.000 fps Color space : YUV Chroma subsampling : 4:2:0 Bit depth : 8 bits Scan type : Progressive Bits/(Pixel*Frame) : 0.132 Stream size : 25.1 MiB (97%) Language : English Encoded date : UTC 2009-05-13 02:22:51 Tagged date : UTC 2009-05-13 02:31:00 Color primaries : BT.709-5, BT.1361, IEC 61966-2-4, SMPTE RP177 Transfer characteristics : BT.709-5, BT.1361 Matrix coefficients : BT.709-5, BT.1361, IEC 61966-2-4 709, SMPTE RP177 Audio ID : 2 Format : AAC Format/Info : Advanced Audio Codec Format version : Version 4 Format profile : LC Format settings, SBR : No Codec ID : 40 Duration : 57s 864ms Bit rate mode : Constant Bit rate : 117 Kbps Nominal bit rate : 128 Kbps Channel(s) : 2 channels Channel positions : Front: L R Sampling rate : 44.1 KHz Stream size : 826 KiB (3%) Language : English Encoded date : UTC 2009-05-13 02:22:51 Tagged date : UTC 2009-05-13 02:31:00

related torrents

Torrent name

health leech seeds Size
 

comments (0)

Main Menu