Movies - Other

Freeway (1996)[DVDRip][big_dad_e™]

  • Download 5x Faster
  • Download torrent
  • Direct Download
  • Rate this torrent +  |  -
Freeway (1996)[DVDRip][big_dad_e™]

Anonymous and Free Direct Download


Torrent info

Name:Freeway (1996)[DVDRip][big_dad_e™]

Total Size: 1.91 GB

Magnet: Magnet Link

Seeds: 16

Leechers: 2

Stream: Watch Online @ Movie4u

Last Updated: 2017-03-30 17:19:33 (Update Now)

Torrent added: 2010-11-20 06:39:23



VPN For Torrents

Torrent Files List


Freeway (1996)[DVDRip][big_dad_e™].avi (Size: 1.91 GB) (Files: 6)

 Freeway (1996)[DVDRip][big_dad_e™].avi

1.91 GB

 filesharing_not_illegal_yet.jpg

258.86 KB

 Freeway (1996)[DVDRip][big_dad_e™].jpg

78.69 KB

 big_dad_e™.jpg

17.05 KB

 Freeway (1996)[DVDRip][big_dad_e™].txt

4.63 KB

 Torrent downloaded from Demonoid.com.txt

0.05 KB
 

tracker

leech seeds
 

Torrent description

Freeway (1996)

Director: Matthew Bright

Freeway is a 1996 crime film written and directed by Matthew Bright, starring Kiefer Sutherland, Reese Witherspoon and Brooke Shields.

The plot of this film has a resemblance of the fairy tale, Little Red Riding Hood.

The film was received positively by most critics, who lauded the film\'s hard edged satire and performances.

Film critic Roger Ebert gave Freeway three and a half stars out of four and stated, like it or hate it (or both), you have to admire its skill, and the over-the-top virtuosity of Reese Witherspoon and Kiefer Sutherland.

Joe Baltake of The Sacramento Bee gave Freeway four stars out of four and called it a wild, audacious drive in attraction that takes the high from highbrow and the low from lowdown and shakes them up.

Mick LaSalle of the San Francisco Chronicle gave Freeway four stars out of four and said that it was rude in the way the truth is rude, only funnier.

It received Two Thumbs Up on Siskel and Ebert At the Movies. Ebert stated that Witherspoon\'s performance was great and said Kiefer Sutherland balances it with a truly inspired villain. He also said how the film was filled with fine acting. He ended by describing it as compulsively watchable and noted that Witherspoon\'s performance promised an exciting career. Gene Siskel agreed completely with Ebert and commented on how the performances it hits the right notes. The only flaw they noted about the film was that it was too cute sometimes, but stated that it was a good film.

Media Info:
General
Complete name : J:\\Seeding\\Freeway (1996)[DVDRip][big_dad_e„]\\Freeway (1996)[DVDRip][big_dad_e„].avi
Format : AVI
Format/Info : Audio Video Interleave
Format profile : OpenDML
File size : 1.91 GiB
Duration : 1h 41mn
Overall bit rate : 2 684 Kbps
Writing application : Lavf51.12.1

Video
ID : 0
Format : MPEG-4 Visual
Format profile : [email protected]
Format settings, BVOP : No
Format settings, QPel : No
Format settings, GMC : No warppoints
Format settings, Matrix : Default (H.263)
Codec ID : DX50
Codec ID/Hint : DivX 5
Duration : 1h 41mn
Bit rate : 2 351 Kbps
Width : 720 pixels
Height : 540 pixels
Display aspect ratio : 4:3
Frame rate : 23.976 fps
Color space : YUV
Chroma subsampling : 4:2:0
Bit depth : 8 bits
Scan type : Progressive
Bits/(Pixel*Frame) : 0.252
Stream size : 1.67 GiB (88%)
Writing library : Lavc51.40.4

Audio
ID : 1
Format : MPEG Audio
Format version : Version 1
Format profile : Layer 3
Mode : Joint stereo
Mode extension : MS Stereo
Codec ID : 55
Codec ID/Hint : MP3
Duration : 1h 41mn
Bit rate mode : Constant
Bit rate : 320 Kbps
Channel(s) : 2 channels
Sampling rate : 44.1 KHz
Stream size : 233 MiB (12%)
Alignment : Aligned on interleaves
Interleave, duration : 26 ms (0.63 video frame)
Writing library : LAMEUUU O¹·SZ¹y{

File Scan:
Malwarebytes\' Anti-Malware 1.46
www.malwarebytes.org

Database version: 5156

Windows 5.1.2600 Service Pack 3
Internet Explorer 8.0.6001.18702

11/20/2010 3:46:28 AM
mbam-log-2010-11-20 (03-46-28).txt

Scan type: Quick scan
Objects scanned: 6
Time elapsed: 10 second(s)

Memory Processes Infected: 0
Memory Modules Infected: 0
Registry Keys Infected: 0
Registry Values Infected: 0
Registry Data Items Infected: 0
Folders Infected: 0
Files Infected: 0

Memory Processes Infected:
(No malicious items detected)

Memory Modules Infected:
(No malicious items detected)

Registry Keys Infected:
(No malicious items detected)

Registry Values Infected:
(No malicious items detected)

Registry Data Items Infected:
(No malicious items detected)

Folders Infected:
(No malicious items detected)

Files Infected:
(No malicious items detected)

When using TPB please read these important notes:

01- Anti-malware apps may warn about keygens, patches, cracks, etc., because of
their capabilities, (generating codes, etc.). Sometimes they\'re added to
the virus/spyware database and will be detected as malware. If you don\'t trust
the keygens, patches, cracks, etc., don\'t use them.

02- Before running .exe-files, keygens, patches, cracks, etc., always check first
if they can be unpacked. Often some third party added a virus to the
original file, repacked it and uploaded it again.

03- Letting anti-malware apps send scan results to their companies can cause
keygens, patches, cracks, etc., to be added to their virus-database.

04- Firewalls which are set to automatically determine connections will allow
apps & malware!. Avoid this by manually configuring your firewall.

05- Usually (new) torrents with many downloads and seeders in a brief period is
suspicious! Torrents with the Skull & Crossbones icon are trusted.

06- Some people use multiple accounts and post fake comments
and/or files trying to spread confusion. They seldom seriously
comment or have any torrents, or a just a few to look passable.

07- Clicking on unknown links can cause malware to be installed on your machine.

08- In general often there are more fake and negative comments than reliable and
positive comments.

09- In some countries uploading/downloading copyright protected material is
forbidden, but showing some appreciation to reliable up-loaders is not.

10- Posting fake and negative comments or fake/infected uploads on TPB can result
in getting banned from TPB!

Requests? Find me on SuprBay.


For reporting bad or suspicious torrents:
http://forum.suprbay.org/forumdisplay.php?fid=29

For more of my torrents:
https://thepiratebay.org/user/big_dad_e/ (Secured)

All torrents scanned with:
Norton Anti-virus
Malwarebytes\' Anti-malware

http://www.pirate-party.us/

ALWAYS SEED & THANKS SEEDERS!

related torrents

Torrent name

health leech seeds Size

Freeway 1996 [JDmaX]

0 1 699.97 MB 0

Freeway 1996

0 0 700.00 MB 0

Freeway (1996) Xvid

0 0 700.00 MB 0
 


comments (0)

Main Menu