Movies - Other

For Colored Girls 2010 DVDScr XviD-NoGRP

  • Download 5x Faster
  • Download torrent
  • Direct Download
  • Rate this torrent +  |  -
For Colored Girls 2010 DVDScr XviD-NoGRP

Download direct - no client needed


Torrent info

Name:For Colored Girls 2010 DVDScr XviD-NoGRP.torrent

Seeds: 3

Leechers: 0

Available: Watch Online @ Movie4u

Total Size: 732.84 MB

Downloaded: 2591

Torrent added: 2010-11-02 13:39:23

Last Updated: 0000-00-00 00:00:00 (Update Now)

Share:Bookmark and Share



Torrent Files List


For Colored Girls 2010 DVDScr XviD-NoGRP.avi (Size: 732.84 MB) (Files: 10)

 For Colored Girls 2010 DVDScr XviD-NoGRP.avi

732.42 MB

 Important information about the subtitle files.txt

1.44 KB

 [Sub Tittles].srt

150.68 KB

 movieinfo.nfo

2.05 KB

 subtitles

  Portuguese[Sub].srt

68.92 KB

  Spanish[Sub].srt

119.88 KB

  Swedish.srt

90.30 KB

 tracked_and_downloaded_from_torrentday.com.txt

0.05 KB

 tracked_by_Ahashare.com.txt

0.03 KB

 tracked_by_h33t_com.txt

0.02 KB
 



Announce URL: http://tracker.publicbt.com/announce

Torrent description

Video
ID : 1
Format : AVC
Format/Info : Advanced Video Codec
Format profile : Main@L3.0
Format settings, CABAC : Yes
Format settings, ReFrames : 2 frames
Codec ID : avc1
Codec ID/Info : Advanced Video Coding
Bit rate mode : Variable
Bit rate : 825 Kbps
Width : 720 pixels
Height : 356 pixels
Display aspect ratio : 2.35:1
Frame rate mode : Variable
Frame rate : 23.976 fps
Minimum frame rate : 14.985 fps
Maximum frame rate : 90.909 fps
Color space : YUV
Chroma subsampling : 4:2:0
Bit depth : 8 bits
Scan type : Progressive
Bits/(Pixel*Frame) : 0.134
Stream size : 581 MiB (83%)
Writing library : x264 core 79

Audio
ID : 2
Format : AAC
Format/Info : Advanced Audio Codec
Format version : Version 4
Format profile : LC
Format settings, SBR : No
Codec ID : 40
Bit rate mode : Variable
Bit rate : 160 Kbps
Maximum bit rate : 219 Kbps
Channel(s) : 2 channels
Channel positions : Front: L R
Sampling rate : 48.0 KHz
Stream size : 113 MiB (16%)
Language : English

http://www.imdb.com/title/tt1405500/

Genres: Drama
(MPAA) Rated R for some disturbing violence including a rape, sexual content and language.

Storyline

The movie is based on Ntozake Shanges play For Colored Girls Who Have Considered Suicide When the Rainbow Is Enuf. Unlike the original play which featured only 7 women known by colors performing the collection of 20 poems, the movie has given each of the 20 characters names. Each of the poems deal with intense issues that particularly impact women in a thought-provoking commentary on what it means to be a female of color in the world.

cast:

Kimberly Elise ... Crystal / Brown
Janet Jackson ... Jo / Red
Loretta Devine ... Juanita / Green
Thandie Newton ... Tangie / Orange
Anika Noni Rose ... Yasmine / Yellow
Kerry Washington ... Kelly / Blue
Tessa Thompson ... Nyla / Purple
Phylicia Rashad ... Gilda
Whoopi Goldberg ... Alice / White
Macy Gray ... Rose
Michael Ealy ... Beau Willie
Omari Hardwick ... Carl
Richard Lawson ... Frank
Hill Harper ... Donald
Khalil Kain ... Bill

related torrents

Torrent name

health leech seeds Size
 

comments (0)

Main Menu