Movies - Other

Catch Me If You Can (2002)

  • Download 5x Faster
  • Download torrent
  • Direct Download
  • Rate this torrent +  |  -
Catch Me If You Can (2002)

Download direct - no client needed


Torrent info

Name:Catch Me If You Can (2002).torrent

Seeds: 6

Leechers: 7

Available: Watch Online @ Movie4u

Total Size: 812.57 MB

Downloaded: 176

Torrent added: 2010-10-24 22:36:11

Last Updated: 0000-00-00 00:00:00 (Update Now)

Share:Bookmark and Share



Torrent Files List


Catch me if u can 2002 HDTV Rip.mkv (Size: 812.57 MB) (Files: 2)

 Catch me if u can 2002 HDTV Rip.mkv

807.35 MB

 Sample.mkv

5.22 MB
 



Announce URL: http://tracker.ilibr.org/announce

Torrent description

Catch Me If You Can (2002) preview 8
Catch Me If You Can (2002) preview 9

Catch Me If You Can (2002) preview 10

Catch Me If You Can (2002) preview 11
[B]An FBI agent tracks down and catches a young con artist who successfully impersonated an airline pilot,doctor, assistant attorney general and history professor, cashing more than $2.5 million in fraudulent checks in 26 countries.[/B]

Catch Me If You Can (2002) preview 12
[B]General[/B]
[B] Complete name : Catch me if u can 2002 HDTV Rip~3385VKSH[/B]
[B] Format : Matroska[/B]
[B] File size : 807 MiB[/B]
[B] Duration : 2h 12mn[/B]
[B] Overall bit rate : 852 Kbps[/B]
[B] Encoded date : UTC 2010-09-15 06:49:04[/B]
[B] Writing application : mkvmerge v4.2.0 (No Talking) built on Jul 28 2010 18:38:23[/B]
[B] Writing library : libebml v1.0.0 + libmatroska v1.0.0[/B]


Catch Me If You Can (2002) preview 13
[SIZE=3][URL]http://www.imdb.com/title/tt0264464/[/URL][/SIZE]

Catch Me If You Can (2002) preview 14
[B]Video[/B]
[B] ID : 1[/B]
[B] Format : AVC[/B]
[B] Format/Info : Advanced Video Codec[/B]
[B] Format profile : High@L4.1[/B]
[B] Format settings, CABAC : Yes[/B]
[B] Format settings, ReFrames : 5 frames[/B]
[B] Muxing mode : Container profile=Unknown@4.1[/B]
[B] Codec ID : V_MPEG4/ISO/AVC[/B]
[B] Duration : 2h 12mn[/B]
[B] Bit rate : 650 Kbps[/B]
[B] Width : 1 280 pixels[/B]
[B] Height : 720 pixels[/B]
[B] Display aspect ratio : 16:9[/B]
[B] Frame rate : 25.000 fps[/B]
[B] Original frame rate : 23.976 fps[/B]
[B] Color space : YUV[/B]
[B] Chroma subsampling : 4:2:0[/B]
[B] Bit depth : 8 bits[/B]
[B] Scan type : Progressive[/B]
[B] Bits/(Pixel*Frame) : 0.028[/B]
[B] Stream size : 609 MiB (75%)[/B]
[B] Writing library : x264 core 60 r900 a9af942[/B]

Catch Me If You Can (2002) preview 15
[B]Audio[/B]
[B] ID : 2[/B]
[B] Format : MPEG Audio[/B]
[B] Format version : Version 1[/B]
[B] Format profile : Layer 3[/B]
[B] Codec ID : A_MPEG/L3[/B]
[B] Codec ID/Hint : MP3[/B]
[B] Duration : 2h 12mn[/B]
[B] Bit rate mode : Constant[/B]
[B] Bit rate : 192 Kbps[/B]
[B] Channel(s) : 2 channels[/B]
[B] Sampling rate : 44.1 KHz[/B]
[B] Video delay : 21ms[/B]
[B] Stream size : 182 MiB (23%)[/B]
[B] Language : Hindi[/B]

Catch Me If You Can (2002) preview 4
Catch Me If You Can (2002) preview 0
Catch Me If You Can (2002) preview 1
Catch Me If You Can (2002) preview 2
Catch Me If You Can (2002) preview 3

Catch Me If You Can (2002) preview 5

Catch Me If You Can (2002) preview 6

Catch Me If You Can (2002) preview 7

Catch Me If You Can (2002) preview 16

Catch Me If You Can (2002) preview 17

related torrents

Torrent name

health leech seeds Size
 

comments (0)

Main Menu