Movies - Other

The Town 2010-DVDRip H264-AAC

  • Download 5x Faster
  • Download torrent
  • Direct Download
  • Rate this torrent +  |  -
The Town 2010-DVDRip H264-AAC

Download direct - no client needed


Torrent info

Name:The Town 2010-DVDRip H264-AAC.torrent

Seeds: 6

Leechers: 0

Available: Watch Online @ Movie4u

Total Size: 805.96 MB

Downloaded: 57906

Torrent added: 2010-09-21 20:25:41

Last Updated: 0000-00-00 00:00:00 (Update Now)

Share:Bookmark and Share



Torrent Files List


The Town 2010-DVDRip H264-AAC.wmv (Size: 805.96 MB) (Files: 1)

 The Town 2010-DVDRip H264-AAC.wmv

805.96 MB
 

Announce URL: http://tracker.ex.ua/announce

Torrent description

Format : WMV
Format/Info : Audio Video Interleave
Format profile : OpenDML
File size : 1.35 GiB
Duration : 1h 59mn
Overall bit rate : 1 611 Kbps
Writing application : VirtualDubMod 1.5.10.2 (build 2542/release)
Writing library : VirtualDubMod build 2542/release
Original source form : MAX TORRENTZ
Copyright : SIGISMUNT

Video
ID : 0
Format : MPEG-4 Visual
Format profile : AdvancedSimple@L5
Format settings, BVOP : Yes
Format settings, QPel : No
Format settings, GMC : No warppoints
Format settings, Matrix : Default (H.263)
Codec ID : XVID
Codec ID/Hint : XviD
Duration : 1h 59mn
Bit rate : 1 157 Kbps
Width : 704 pixels
Height : 304 pixels
Display aspect ratio : 2.35:1
Frame rate : 25.000 fps
Resolution : 24 bits
Colorimetry : 4:2:0
Scan type : Progressive
Bits/(Pixel*Frame) : 0.216
Stream size : 991 MiB (72%)
Writing library : XviD 1.3.0.dev55

Audio
ID : 1
Format : AC-3
Format/Info : Audio Coding 3
Codec ID : 2000
Duration : 1h 59mn
Bit rate mode : Constant
Bit rate : 448 Kbps
Channel(s) : 6 channels
Channel positions : Front: L C R, Surround: L R, LFE
Sampling rate : 48.0 KHz
Stream size : 384 MiB (28%)
Alignment : Aligned on interleaves
Interleave, duration : 64 ms (1.60 video frames)
Interleave, preload duration : 192 ms

How To Get Your Maxspeed (uTorrent)

Torrent Client - Preferences - Bandwidth - Number of connections - Set aprox. 500 for each
Torrent Client - Preferences - BiTorrent - Protocol Encryption - Forced
Bandwidth Allocation - High (Set download/upload limit - Unlimited)
Stop Other Active Torrents - Start downloading and wait for connections.
Enjoy and Seed for at least 1:1 ratio. Dont forget to say thanks/leave reviews.
Greets to all actual/future p2p/scene quality groups and affiliate websites.
Dont trust IMDb robot or bad ratings,always watch some trailers first.
Ignore stupid comments/fake/mislabeled/no-dvdrip/CAM/TS/RAR uploads.
Please report if you see online streaming or other spam links.
If you need translation subs visit some subtitles sites.
Also spread this link to your friends.
Recommended movie player WINDOWS MEDIA PLAYER.

related torrents

Torrent name

health leech seeds Size

The Town 2010 Cam H264 Crys

32 139 699.00 MB 0
 

comments (0)

Main Menu