Movies - Other

Mumbai Pune Mumbai [2010] - Xvid - 1 CD PDVDRip - MDG Exclusive avi

  • Download 5x Faster
  • Download torrent
  • Direct Download
  • Rate this torrent +  |  -

Torrent info

Name:Mumbai Pune Mumbai [2010] - Xvid - 1 CD PDVDRip - MDG Exclusive avi.torrent

Seeds: 0

Leechers: 0

Available: Watch Online @ Movie4u

Total Size: 697.76 MB

Downloaded: 7224

Torrent added: 2010-09-20 07:25:15

Last Updated: 0000-00-00 00:00:00 (Update Now)

Share:Bookmark and Share



Torrent Files List


Mumbai Pune Mumbai [2010] - Xvid - 1 CD PDVDRip - MDG Exclusive.avi (Size: 697.76 MB) (Files: 1)

 Mumbai Pune Mumbai [2010] - Xvid - 1 CD PDVDRip - MDG Exclusive.avi

697.76 MB
 

Announce URL:

Torrent description

mastitorrents.com

http://mastitorrents.com/forums/index.php

Plot -
A tale of two cities Mumbai and Pune :- Now a Marathi movie titled Mumbai-Pune-Mumbai will target the sensibilities of both the cities.this movie a huge cultural difference between Pune and Mumbai, the two cities who are geographically linked to each other, share a love and hate relationship.The films romantic pair of Swapnil Joshi and Mukta Barve want to spend a day on their own without any interference from anyone, in the ambience of beautiful nature. Thats the gist of the movie.


Media Info -
General
Name : Mumbai Pune Mumbai
Format : AVI
Format/Info : Audio Video Interleave
Format profile : OpenDML
File size : 698 MiB
Duration : 1h 42mn
Overall bit rate : 949 Kbps
Writing application : AVI-Mux GUI 1.17.8.3

Video
ID : 0
Format : MPEG-4 Visual
Format profile : Advanced Simple@L5
Format settings, BVOP : Yes
Format settings, QPel : No
Format settings, GMC : No warppoints
Format settings, Matrix : Default (H.263)
Codec ID : XVID
Codec ID/Hint : XviD
Duration : 1h 42mn
Bit rate : 882 Kbps
Width : 608 pixels
Height : 256 pixels
Display aspect ratio : 2.35:1
Frame rate : 25.000 fps
Color space : YUV
Chroma subsampling : 4:2:0
Bit depth : 8 bits
Scan type : Progressive
Bits/(Pixel*Frame) : 0.227
Stream size : 648 MiB (93%)
Writing library : XviD 1.2.1

Audio
ID : 1
Format : MPEG Audio
Format version : Version 2
Format profile : Layer 3
Mode : Joint stereo
Codec ID : 55
Codec ID/Hint : MP3
Duration : 1h 42mn
Bit rate mode : Constant
Bit rate : 64.0 Kbps
Channel(s) : 2 channels
Sampling rate : 24.0 KHz
Stream size : 47.0 MiB (7%)
Alignment : Aligned on interleaves
Interleave, duration : 852 ms (21.30 video frames)
Interleave, preload duration : 216 ms
Title : MPM Final T80 2_0ch 192Kbps DELAY 0ms
Writing library : LAME3.98r
Ripper : Nordmariner

related torrents

Torrent name

health leech seeds Size
 

comments (0)

Main Menu