Sex And The City 2 (2010) Dvdrip Xvid Max

  • Download 5x Faster
  • Download torrent
  • Direct Download
  • Rate this torrent +  |  -
Sex And The City 2 (2010) Dvdrip Xvid Max

Download direct - no client needed


Torrent info

Name:Sex And The City 2 (2010) Dvdrip Xvid Max.torrent

Seeds: 0

Leechers: 0

Available: Watch Online @ Movie4u

Total Size: 1.38 GB

Downloaded: 73444

Torrent added: 2010-07-28 12:34:10

Last Updated: 0000-00-00 00:00:00 (Update Now)

Share:Bookmark and Share



Torrent Files List


 

Announce URL:

Torrent description

Sex and the City 2 (2010) DVDRip XviD-MAX

Format : AVI
Format/Info : Audio Video Interleave
Format profile : OpenDML
File size : 1.37 GiB
Duration : 2h 20mn
Overall bit rate : 1 390 Kbps
Writing application : VirtualDubMod 1.5.10.2 (build 2542/release)
Writing library : VirtualDubMod build 2542/release
Original source form : MAX TORRENTZ
Copyright : SIGISMUNT

Video
ID : 0
Format : MPEG-4 Visual
Format profile : E-mail
Format settings, BVOP : Yes
Format settings, QPel : No
Format settings, GMC : No warppoints
Format settings, Matrix : Default (H.263)
Muxing mode : Packed bitstream
Codec ID : XVID
Codec ID/Hint : XviD
Duration : 2h 20mn
Bit rate : 1 193 Kbps
Width : 720 pixels
Height : 288 pixels
Display aspect ratio : 2.500
Frame rate : 25.000 fps
Resolution : 24 bits
Colorimetry : 4:2:0
Scan type : Progressive
Bits/(Pixel*Frame) : 0.230
Stream size : 1.17 GiB (86%)
Writing library : XviD 1.2.1 (UTC 2008-12-04)

Audio
ID : 1
Format : AC-3
Format/Info : Audio Coding 3
Codec ID : 2000
Duration : 2h 20mn
Bit rate mode : Constant
Bit rate : 192 Kbps
Channel(s) : 2 channels
Channel positions : L R
Sampling rate : 48.0 KHz
Stream size : 193 MiB (14%)
Alignment : Aligned on interleaves
Interleave, duration : 64 ms (1.60 video frames)
Interleave, preload duration : 192 ms

Source: KiNGDOM (perfect resynced-check included sample)

http://www.imdb.com/title/tt1261945/


Screens:
" border="0" alt="Sex And The City 2 (2010) Dvdrip Xvid Max preview 0"/>" rel="nofollow">
Sex And The City 2 (2010) Dvdrip Xvid Max preview 1" border="0" alt="Sex And The City 2 (2010) Dvdrip Xvid Max preview 0"/>

" border="0" alt="Sex And The City 2 (2010) Dvdrip Xvid Max preview 2"/>" rel="nofollow">
Sex And The City 2 (2010) Dvdrip Xvid Max preview 3" border="0" alt="Sex And The City 2 (2010) Dvdrip Xvid Max preview 2"/>

" border="0" alt="Sex And The City 2 (2010) Dvdrip Xvid Max preview 4"/>" rel="nofollow">
Sex And The City 2 (2010) Dvdrip Xvid Max preview 5" border="0" alt="Sex And The City 2 (2010) Dvdrip Xvid Max preview 4"/>

" border="0" alt="Sex And The City 2 (2010) Dvdrip Xvid Max preview 6"/>" rel="nofollow">
Sex And The City 2 (2010) Dvdrip Xvid Max preview 7" border="0" alt="Sex And The City 2 (2010) Dvdrip Xvid Max preview 6"/>


ScreenCaps:
" border="0" alt="Sex And The City 2 (2010) Dvdrip Xvid Max preview 8"/>" rel="nofollow">
Sex And The City 2 (2010) Dvdrip Xvid Max preview 9" border="0" alt="Sex And The City 2 (2010) Dvdrip Xvid Max preview 8"/>


Sex and the City 2 (2010) DVDRip XviD-MAX Torrent Free Download

http://thepiratebay.org/user/extremezone/0/7


How To Get Your Maxspeed (uTorrent)

Torrent Client - Preferences - Bandwidth - Number of connections - Set aprox. 500 for each
Torrent Client - Preferences - BiTorrent - Protocol Encryption - Forced
Bandwidth Allocation - High (Set download/upload limit - Unlimited)
Stop Other Active Torrents - Start downloading and wait for connections
Enjoy and Seed for at least 1:1 ratio. Dont forget to say thanks/leave reviews.
Also please spread the link where you found this torrent to your friends.
Dont trust IMDb robot or bad ratings,always watch some trailers first.
Ignore stupid comments and fake/mislabeled/CAM/TS/RAR uploads.
If you need translation subs visit some subtitles sites.
Recommended movie player VLC PLAYER.

related torrents

Torrent name

health leech seeds Size

Sex And The City 2010

24 2 88.87 MB 0
 

comments (0)

Main Menu