Other

National Security In Hindi

  • Download 5x Faster
  • Download torrent
  • Direct Download
  • Rate this torrent +  |  -
National Security In Hindi

Download direct - no client needed


Torrent info

Name:National Security In Hindi.torrent

Seeds: 0

Leechers: 1

Available: Watch Free Online Movie @ Movie4u

Total Size: 498.00 MB

Downloaded: 270

Torrent added: 2010-07-22 14:05:03

Last Updated: 0000-00-00 00:00:00 (Update Now)

Share:Bookmark and Share



Torrent Files List


 

Announce URL: http://nemesis.1337x.org/announce

Torrent description

76a4y.jpg

8vvvj9.jpg

Format : AVI

Format/Info : Audio Video Interleave

File size : 498 MiB

Duration : 1h 19mn

Overall bit rate : 880 Kbps



Video

ID : 0

Format : AVC

Format/Info : Advanced Video Codec

Format profile : High@L5.1

Format settings, CABAC : Yes

Format settings, ReFrames : 1 frame

Codec ID : H264

Duration : 1h 19mn

Bit rate : 775 Kbps

Width : 640 pixels

Height : 352 pixels

Display aspect ratio : 16:9

Frame rate : 29.970 fps

Resolution : 8 bits

Colorimetry : 4:2:0

Scan type : Progressive

Bits/(Pixel*Frame) : 0.115

Stream size : 439 MiB (88%)



Audio

ID : 1

Format : MPEG Audio

Format version : Version 1

Format profile : Layer 3

Codec ID : 55

Codec ID/Hint : MP3

Duration : 1h 19mn

Bit rate mode : Constant

Bit rate : 96.0 Kbps

Channel(s) : 2 channels

Sampling rate : 44.1 KHz

Stream size : 54.3 MiB (11%)

Alignment : Split accross interleaves

Interleave, duration : 67 ms (2.00 videoframes)

ogtw21.gif

JjkDJ.jpg

CxDHq.jpg

4ap9O.jpg

2pqvmsh.gif

related torrents

Torrent name

health leech seeds Size
 

comments (0)

Main Menu