Robin Hood 2010 Pal Ntsc Dvd No Rars Greatmagician

  • Download 5x Faster
  • Download torrent
  • Direct Download
  • Rate this torrent +  |  -

Torrent info

Name:Robin Hood 2010 Pal Ntsc Dvd No Rars Greatmagician

Total Size: 850.12 MB

Magnet: Magnet Link

Seeds: 9

Leechers: 6

Stream: Watch Full Movie @ Movie4u

Last Updated: 2010-09-01 05:11:52 (Update Now)

Torrent added: 2010-05-20 21:07:33



CyberGhost VPN For Torrents

Torrent Files List


 

Announce URL: http://tracker.thepiratebay.org/announce

Torrent description

DETAILS:

Video
Format : MPEG-4 Visual
Format profile : Streaming [email protected]
Format settings, BVOP : Yes
Format settings, QPel : No
Format settings, GMC : No warppoints
Format settings, Matrix : Default
Muxing mode : Packed bitstream
Codec ID : XVID
Codec ID/Hint : XviD
Duration : 1h 45mn
Bit rate : 1 730 Kbps
Width : 720 pixels
Height : 304 pixels
Display aspect ratio : 2.35
Frame rate : 23.976 fps
Resolution : 24 bits
Colorimetry : 4:2:0
Scan type : Progressive
Bits/(Pixel*Frame) : 0.330
Stream size : 1.27 GiB (93%)
Writing library : XviD 50

Audio
Format : MPEG Audio
Format version : Version 1
Format profile : Layer 3
Codec ID : 55
Codec ID/Hint : MP3
Duration : 1h 45mn
Bit rate mode : Constant
Bit rate : 128 Kbps
Channel(s) : 2 channels
Sampling rate : 48.0 KHz
Resolution : 16 bits
Stream size : 96.3 MiB (7%)
Alignment : Split accross interleaves
Interleave, duration : 42 ms (1.00 video frame)
Interleave, preload duration : 500 ms


d i r e c t e d b y

Ridley Scott

p l o t

The story of how an archer in the service of
King Richard the Lionheart became to be known
as Robin Hood, the famous archer and outlaw of
English Folklore.

Beginning after the Death of King Richard at
the Siege of Chalus Chabrol, the film follows
Robin on his rise to infamy among the English
Barons and the newly crowned King John.

Screens " border="0" alt="Robin Hood 2010 Pal Ntsc Dvd No Rars Greatmagician preview 0"/>" rel="nofollow">
Robin Hood 2010 Pal Ntsc Dvd No Rars Greatmagician preview 1" border="0" alt="Robin Hood 2010 Pal Ntsc Dvd No Rars Greatmagician preview 0"/>
" border="0" alt="Robin Hood 2010 Pal Ntsc Dvd No Rars Greatmagician preview 2"/>" rel="nofollow">
Robin Hood 2010 Pal Ntsc Dvd No Rars Greatmagician preview 3" border="0" alt="Robin Hood 2010 Pal Ntsc Dvd No Rars Greatmagician preview 2"/>
" border="0" alt="Robin Hood 2010 Pal Ntsc Dvd No Rars Greatmagician preview 4"/>" rel="nofollow">
Robin Hood 2010 Pal Ntsc Dvd No Rars Greatmagician preview 5" border="0" alt="Robin Hood 2010 Pal Ntsc Dvd No Rars Greatmagician preview 4"/>
" border="0" alt="Robin Hood 2010 Pal Ntsc Dvd No Rars Greatmagician preview 6"/>" rel="nofollow">
Robin Hood 2010 Pal Ntsc Dvd No Rars Greatmagician preview 7" border="0" alt="Robin Hood 2010 Pal Ntsc Dvd No Rars Greatmagician preview 6"/>
" border="0" alt="Robin Hood 2010 Pal Ntsc Dvd No Rars Greatmagician preview 8"/>" rel="nofollow">
Robin Hood 2010 Pal Ntsc Dvd No Rars Greatmagician preview 9" border="0" alt="Robin Hood 2010 Pal Ntsc Dvd No Rars Greatmagician preview 8"/>


Enjoy!


http://www.imdb.com/title/tt0955308/

related torrents

Torrent name

health leech seeds Size
 


comments (0)

Main Menu