Grown Ups 2010 Dvdrip X1337 Super Ripper

  • Download 5x Faster
  • Download torrent
  • Direct Download
  • Rate this torrent +  |  -
Grown Ups 2010 Dvdrip X1337 Super Ripper

Download FREE And Anonymously


Torrent info

Name:Grown Ups 2010 Dvdrip X1337 Super Ripper

Total Size: 855.96 MB

Magnet: Magnet Link

Seeds: 1

Leechers: 2

Stream: Watch Full Movie @ Movie4u

Last Updated: 2010-09-12 16:25:59 (Update Now)

Torrent added: 2010-05-06 03:09:45



CyberGhost VPN For Torrents

Torrent Files List


 

Announce URL: http://tracker.thepiratebay.org/announce

Torrent description

Format : AVI
Format/Info : Audio Video Interleave
Overall bit rate : 1 257 Kbps
Writing application : VirtualDubMod 1.5.10.2 (build 2542/release)
Writing library : VirtualDubMod build 2542/release
Original source form : UNKOWN ORIGNALITY
Copyright : SIGISMUNT

Video
ID : 0
Format : MPEG-4 Visual
Format profile : [email protected]
Format settings, BVOP : Yes
Format settings, QPel : No
Format settings, GMC : No warppoints
Format settings, Matrix : Default (H.263)
Muxing mode : Packed bitstream
Codec ID : XVID
Codec ID/Hint : XviD
Bit rate : 1 135 Kbps
Width : 704 pixels
Height : 384 pixels
Display aspect ratio : 16:9
Frame rate : 23.976 fps
Resolution : 24 bits
Colorimetry : 4:2:0
Scan type : Progressive
Bits/(Pixel*Frame) : 0.173
Stream size : 1.23 GiB (90%)
Writing library : XviD 1.3.0.dev55

Audio
ID : 1
Format : MPEG Audio
Format version : Version 1
Format profile : Layer 3
Codec ID : 55
Codec ID/Hint : MP3
Bit rate mode : Constant
Bit rate : 128 Kbps
Channel(s) : 2 channels
Sampling rate : 44.1 KHz
Resolution : 16 bits
Stream size : 126 MiB (9%)
Alignment : Aligned on interleaves
Interleave, duration : 26 ms (0.63 video frame)
Interleave, preload duration : 517 ms
Writing library : LAME3.98.2



PLOT:

Thirty years after their high school graduation, five good friends reunite for a Fourth of July holiday weekend.

related torrents

Torrent name

health leech seeds Size
 


comments (0)

Main Menu