Movies - Other

The Losers TS XViD v2 {x1337} AC3 Noir

  • Download 5x Faster
  • Download torrent
  • Direct Download
  • Rate this torrent +  |  -
The Losers TS XViD v2 {x1337} AC3 Noir

Download FREE And Anonymously


Torrent info

Name:The Losers TS XViD v2 {x1337} AC3 Noir

Total Size: 795.88 MB

Magnet: Magnet Link

Seeds: 1

Leechers: 12

Stream: Watch Full Movie @ Movie4u

Last Updated: 2010-10-07 21:13:54 (Update Now)

Torrent added: 2010-05-05 06:35:36



CyberGhost VPN For Torrents

Torrent Files List


Subtitles.rar (Size: 795.88 MB) (Files: 5)

 Subtitles.rar

132.12 KB

 The Losers TS XViD v2 {x1337}.AC3 - Noir.avi

782.03 MB

 The Losers TS XViD - SAMPLE.avi

13.72 MB

 Torrent Tracked By www.Demonoid.com.txt.txt

0.13 KB

 torrent verified by h33t_com.txt

0.12 KB
 

Announce URL: http://tracker.thepiratebay.org/announce

Torrent description


http://www.imdb.com/title/tt0480255/

Plot
A tale of double cross and revenge, centered upon the members of an elite U.S. Special Forces unit sent into the Bolivian jungle on a search and destroy mission. The team-Clay, Jensen, Roque, Pooch and Cougar -find themselves the target of a lethal betrayal instigated from inside by a powerful enemy known only as Max. Presumed dead, the group makes plans to even the score when they\'re joined by the mysterious Aisha, a beautiful operative with her own agenda. Working together, they must remain deep undercover while tracking the heavily-guarded Max, a ruthless man bent on embroiling the world in a new high-tech global war.



Source : b0ngw4t3r (thanks)
General
Complete name : The.Losers.2010.TS.XViD
Format : AVI
Format/Info : Audio Video Interleave
Duration : 1h 29mn
Overall bit rate : 1 307 Kbps
Writing library : VirtualDub build 32661/release

Video
ID : 0
Format : MPEG-4 Visual
Format profile : [email protected]
Format settings, BVOP : Yes
Format settings, QPel : No
Format settings, GMC : No warppoints
Format settings, Matrix : Default (H.263)
Muxing mode : Packed bitstream
Codec ID : XVID
Codec ID/Hint : XviD
Duration : 1h 29mn
Bit rate : 1 103 Kbps
Width : 656 pixels
Height : 368 pixels
Display aspect ratio : 16:9
Frame rate : 29.970 fps
Resolution : 24 bits
Colorimetry : 4:2:0
Scan type : Progressive
Bits/(Pixel*Frame) : 0.152
Stream size : 708 MiB (84%)
Writing library : XviD 1.2.1 (UTC 2008-12-04)

Audio
ID : 1
Format : MPEG Audio
Format version : Version 1
Format profile : Layer 3
Codec ID : 55
Codec ID/Hint : MP3
Duration : 1h 29mn
Bit rate mode : Constant
Bit rate : 192 Kbps
Channel(s) : 2 channels
Sampling rate : 44.1 KHz
Resolution : 16 bits
Video delay : 26ms
Stream size : 123 MiB (15%)
Alignment : Split accross interleaves
Interleave, duration : 33 ms (1.00 video frame)
Interleave, preload duration : 500 ms


SCREENCAPS:

The Losers TS XViD  v2 {x1337} AC3   Noir preview 0

related torrents

Torrent name

health leech seeds Size
 


comments (0)

Main Menu