Movies

Avatar 2009 DVDRiP DIvX [3D MOVIES]

  • Download 5x Faster
  • Download torrent
  • Direct Download
  • Rate this torrent +  |  -
Avatar 2009 DVDRiP DIvX [3D MOVIES]

Download direct - no client needed


Torrent info

Name:Avatar 2009 DVDRiP DIvX [3D MOVIES].torrent

Seeds: 0

Leechers: 0

Available: Watch Online @ Movie4u

Total Size: 1.60 GB

Downloaded: 161

Torrent added: 2010-04-02 08:15:04

Last Updated: 2013-11-10 05:59:03 (Update Now)

Share:Bookmark and Share



Torrent Files List


Avatar 2009 DVDRiP DIvX [3D MOVIES].nfo (Size: 1.60 GB) (Files: 9)

 Avatar 2009 DVDRiP DIvX [3D MOVIES].nfo

2.41 KB

 Avatar 2009 DVDRiP DIvX [3D MOVIES].png

2.05 MB

 Movie Video With Sample

  Avatar 2009 DVDRiP DIvX [3D MOVIES].avi

1.56 GB

  sample.avi

36.49 MB

 Subtitles

  English[Sub].srt

119.88 KB

  French[Sub].srt

90.30 KB

  Portuguese[Sub].srt

68.92 KB

 Torrent Trackers

  torrent tracked by torrentbit_com.txt

0.09 KB

  torrent verified by h33t_com.txt

0.12 KB
 



Announce URL:

Torrent description



 
 
Format                           : AVI
Format/Info                      : Audio Video Interleave
Duration                         : 2h 36mn
Overall bit rate                 : 1 257 Kbps
Writing application              : VirtualDubMod 1.5.10.2 (build 2542/release)
Writing library                  : VirtualDubMod build 2542/release
Original source form             : MAX TORRENTZ
Copyright                        : SIGISMUNT

Video
ID                               : 0
Format                           : MPEG-4 Visual
Format profile                   : AdvancedSimple@L5
Format settings, BVOP            : Yes
Format settings, QPel            : No
Format settings, GMC             : No warppoints
Format settings, Matrix          : Default (H.263)
Muxing mode                      : Packed bitstream
Codec ID                         : XVID
Codec ID/Hint                    : XviD
Duration                         : 2h 36mn
Bit rate                         : 1 135 Kbps
Width                            : 704 pixels
Height                           : 384 pixels
Display aspect ratio             : 16:9
Frame rate                       : 23.976 fps
Resolution                       : 24 bits
Colorimetry                      : 4:2:0
Scan type                        : Progressive
Bits/(Pixel*Frame)               : 0.173
Stream size                      : 1.23 GiB (90%)
Writing library                  : XviD 1.3.0.dev55

Audio
ID                               : 1
Format                           : MPEG Audio
Format version                   : Version 1
Format profile                   : Layer 3
Codec ID                         : 55
Codec ID/Hint                    : MP3
Duration                         : 2h 36mn
Bit rate mode                    : Constant
Bit rate                         : 128 Kbps
Channel(s)                       : 2 channels
Sampling rate                    : 44.1 KHz
Resolution                       : 16 bits
Stream size                      : 126 MiB (9%)
Alignment                        : Aligned on interleaves
Interleave, duration             : 26 ms (0.63 video frame)
Interleave, preload duration     : 517 ms
Writing library                  : LAME3.98.2 
http://www.imdb.com/title/tt0499549/

Screens: 
Avatar 2009 DVDRiP DIvX [3D MOVIES] preview 0 
Avatar 2009 DVDRiP DIvX [3D MOVIES] preview 1 
Avatar 2009 DVDRiP DIvX [3D MOVIES] preview 2  
Avatar 2009 DVDRiP DIvX [3D MOVIES] preview 3
 
Avatar 2009 DVDRiP DIvX [3D MOVIES] preview 4   

related torrents

Torrent name

health leech seeds Size
 

comments (0)

Main Menu