Movies - Other

Paris je t aime

  • Download 5x Faster
  • Download torrent
  • Direct Download
  • Rate this torrent +  |  -
Paris je t aime

Download direct - no client needed


Torrent info

Name:Paris je t aime.torrent

Seeds: 20

Leechers: 53

Available: Watch Online @ Movie4u

Total Size: 6.86 GB

Downloaded: 95

Torrent added: 2010-01-17 04:10:29

Last Updated: 0000-00-00 00:00:00 (Update Now)

Share:Bookmark and Share



Torrent Files List


Paris je t aime 720p BluRay x264.mkv (Size: 6.86 GB) (Files: 3)

 Paris je t aime 720p BluRay x264.mkv

6.86 GB

 Paris je t aime 720p BluRay x264.srt

78.84 KB

 Paris je t aime 720p BluRay x264.txt

51.30 KB
 

Announce URL: http://tracker.thepiratebay.org/announce

Torrent description

General information:
Production: France, Liechtenstein, Switzerland
Release Date: 18 May 2006 (Cannes Film Festival)
Genre: Romance
Very a lot of creators, actors - the list here -->
[url]http://www.imdb.com/title/tt0401711/fullcredits#cast[/url]
Duration: 2h 0 mn.
Language: English, Polish
Subtitles: English, Polish
Rating: 7,68/10 - 3554 votes

Plot:
Paris, je t\'aime is about the plurality of cinema in one mythic location: Paris, the City of Love. Twenty filmmakers have five minutes each; the audience must weaving a single narrative out of twenty moments. The 20 moments are fused by transitional interstitial sequences and also via the introduction and epilogue.

Given technical:
General
Format : Matroska
Duration : 2h 0mn
Overall bit rate : 8 160 Kbps

Video
Format : AVC
Format/Info : Advanced Video Codec
Format settings, CABAC : Yes
Format settings, ReFrames : 9 frames
Codec ID : V_MPEG4/ISO/AVC
Nominal bit rate : 6 264 Kbps
Width : 1 280 pixels
Height : 692 pixels
Display aspect ratio : 1.850
Frame rate : 23.976 fps

Audio 1
Format : AC-3
Format/Info : Audio Coding 3
Codec ID : A_AC3
Bit rate mode : Constant
Bit rate : 384 Kbps
Channel(s) : 6 channels
Channel positions : Front: L C R, Surround: L R, LFE
Sampling rate : 48.0 KHz
Stream size : 331 MiB (5%)
Title : AC-3, 5.1, 384 Kbps, 4 HDBT RAiCY
Language : Polish

Audio 2
Format : DTS
Format/Info : Digital Theater Systems
Codec ID : A_DTS
Bit rate mode : Constant
Bit rate : 1 510 Kbps
Channel(s) : 6 channels
Channel positions : Front: L C R, Surround: L R, LFE
Sampling rate : 48.0 KHz
Resolution : 24 bits
Stream size : 1.27 GiB (19%)
Title : DTS 5.1 @ 1.5mbps
Language : English

Text 1
Format : ASS
Codec ID : S_TEXT/ASS
Codec ID/Info : Advanced Sub Station Alpha
Language : English

Text 2
Format : UTF-8
Codec ID : S_TEXT/UTF8
Codec ID/Info : UTF-8 Plain Text
Title : 4 HDBT RAiCY
Language : Polish

related torrents

Torrent name

health leech seeds Size

Paris Je T'aime (2006)

0 27 1.00 GB 0
 

comments (0)

Main Menu