Comedy

Funny People[2009]DvDrip LW [SharingHQ][dvdrip][Ahashare]

  • Download 5x Faster
  • Download torrent
  • Direct Download
  • Rate this torrent +  |  -

Torrent info

Name:Funny People[2009]DvDrip LW [SharingHQ][dvdrip][Ahashare]

Total Size: 802.20 MB

Magnet: Magnet Link

Seeds: 88

Leechers: 180

Stream: Watch Full Movie @ Movie4u

Last Updated: 2011-01-08 12:24:53 (Update Now)

Torrent added: 2009-11-13 15:07:12



CyberGhost VPN For Torrents

Torrent Files List


Cover (Size: 802.20 MB) (Files: 7)

 Cover

  FP-Cover.jpg

93.78 KB

 Info

  Movie Info.nfo

4.04 KB

  Movie Info.txt

2.88 KB

 Movie

  Funny People[2009]DvDrip-LW-.mp4

802.10 MB

 Trackers

  tracked_by_sharinghq.net.txt

1.62 KB

  Torrent downloaded from AhaShare.com.txt

0.06 KB

  tracked_by_h33t_com.txt

0.02 KB
 

Announce URL:

Torrent description

Funny People[2009]DvDrip LW [SharingHQ][dvdrip][Ahashare] preview 0
[color=violet]-------------------------------------------------[/color]
F I L E - I N F O
[color=violet]-------------------------------------------------[/color]
File Name : Funny People[2009]DvDrip-LW
Type : Movie
Format : MP4
File Size : 802 MB
Duration : 02:32:27
Language : English
Source : DvD
Subtitles : None
Genre : Comedy
IMDB Link :
IMDB Rating : 7.2/10
IMDB Votes : 13,364 Votes
[color=violet]-------------------------------------------------[/color]
V I D E O
[color=violet]-------------------------------------------------[/color]
Format : MPEG-4 Visual
Format profile : [email protected]
Format settings, BVOP : No
Format settings, QPel : No
Format settings, GMC : No warppoints
Format settings, Matrix : Default (H.263)
Codec ID : 20
Duration : 2h 32mn
Bit rate mode : Constant
Bit rate : 636 Kbps
Nominal bit rate : 512 Kbps
Width : 624 pixels
Height : 336 pixels
Display aspect ratio : 1.857
Frame rate mode : Constant
Frame rate : 23.976 fps
Resolution : 24 bits
Colorimetry : 4:2:0
Scan type : Progressive
Bits/(Pixel*Frame) : 0.127
Stream size : 694 MiB (87%)
[color=violet]-------------------------------------------------[/color]
A U D I O
[color=violet]-------------------------------------------------[/color]
Format : AAC
Format/Info : Advanced Audio Codec
Format version : Version 4
Format profile : LC
Format settings, SBR : No
Codec ID : 40
Duration : 2h 32mn
Bit rate mode : Constant
Bit rate : 96.0 Kbps
Nominal bit rate : 48.0 Kbps
Channel(s) : 2 channels
Channel positions : L R
Sampling rate : 24.0 KHz
Resolution : 16 bits
Stream size : 105 MiB (13%)
[color=violet]-------------------------------------------------[/color]
P L O T
[color=violet]-------------------------------------------------[/color]
Famous and wealthy funnyman George Simmons (Adam
Sandler) doesn't give much thought to how he treats
people until a doctor (Torsten Voges) delivers
stunning health news, forcing George to reevaluate
his priorities with a little help from aspiring
stand-up comic Ira (Seth Rogen). Judd Apatow (Knocked
Up) writes and directs this moving comedy that also
stars Leslie Mann, Jonah Hill, Jason Schwartzman and
Aubrey Plaza.

Starring: Seth Rogen, Adam Sandler

Director: Judd Apatow
[color=violet]-------------------------------------------------[/color]

ScreenShots
Funny People[2009]DvDrip LW [SharingHQ][dvdrip][Ahashare] preview 2
Funny People[2009]DvDrip LW [SharingHQ][dvdrip][Ahashare] preview 3
Funny People[2009]DvDrip LW [SharingHQ][dvdrip][Ahashare] preview 4
Funny People[2009]DvDrip LW [SharingHQ][dvdrip][Ahashare] preview 1Pictures and details http://www.AhaShare.com/torrents-details.php?id=28772

More quality torrents at http://www.ahashare.com
Emulesearch at emuleday.com

related torrents

Torrent name

health leech seeds Size
 


comments (0)

Main Menu